Seven Psychopaths (2012) m-720p Dual Latino-Inglés [Subt. Esp] (Thriller. Comedia)

Maestro Revolver

Administrador
Registro
9 Ago 2012
Mensajes
3.157
Reacciones (ptje)
54.886


Seven-Psychopaths-Dual.jpg




FichaTecnica.jpg


TÍTULO ORIGINAL: Seven Psychopaths
AÑO: 2012
DURACIÓN: 109 min.
PAÍS: Reino Unido
DIRECTOR: Martin McDonagh
GUIÓN: Martin McDonagh
REPARTO: Colin Farrell, Sam Rockwell, Christopher Walken, Woody Harrelson, Tom Waits, Abbie Cornish, Olga Kurylenko, Gabourey Sidibe, Harry Dean Stanton, Kevin Corrigan, Zeljko Ivanek, Michael Stuhlbarg, Michael Pitt,
PRODUCTORA: Coproducción Reino Unido-EEUU; Blueprint Pictures / Film4 / HanWay Films
GÉNERO: Thriller. Comedia | Crimen. Comedia negra
imdb-logo.png
: http://www.imdb.com/title/tt1931533/

PREMIOS: 2012: Premios BAFTA: Nominada a mejor film británico
2012: Festival de Toronto: Mejor película sección Midnight Madness (premio del público)
2012: Independent Spirit Awards: Nominada a Mejor guión y actor secundario (Rockwell)




Sinopsis.jpg


Un guionista (Colin Farrell) busca inspiración para su próximo trabajo, en el que dos excéntricos amigos (Sam Rockwell y Christopher Walken) planean secuestrar a un perro. El asunto se complica cuando el animal de compañía de un mafioso desaparece.




Trailer.jpg






Capturas.jpg


1.jpg


2.jpg


3.jpg


4.jpg


5.jpg


6.jpg


La pelicula NO tiene ninguna marca... solo colocamos el nombre de esta web en las capturas




MediaInfo.jpg


Código:
General
Format                                   : Matroska
Format version                           : Version 2
File size                                : 2.55 GiB
Duration                                 : 1h 50mn
Overall bit rate                         : 3 310 Kbps
Movie name                               : www.club-hd.com
Encoded date                             : UTC 2013-02-09 17:02:50
Writing application                      : mkvmerge v5.7.0 ('The Whirlwind') built on Jul  8 2012 20:08:51
Writing library                          : libebml v1.2.3 + libmatroska v1.3.0

Video
ID                                       : 1
Format                                   : AVC
Format/Info                              : Advanced Video Codec
Format profile                           : [email protected]
Format settings, CABAC                   : Yes
Format settings, ReFrames                : 9 frames
Codec ID                                 : V_MPEG4/ISO/AVC
Duration                                 : 1h 50mn
Bit rate                                 : 2 669 Kbps
Width                                    : 1 280 pixels
Height                                   : 534 pixels
Display aspect ratio                     : 2.40:1
Frame rate mode                          : Constant
Frame rate                               : 23.976 fps
Color space                              : YUV
Chroma subsampling                       : 4:2:0
Bit depth                                : 8 bits
Scan type                                : Progressive
Bits/(Pixel*Frame)                       : 0.163
Stream size                              : 2.01 GiB (79%)
Title                                    : www.club-hd.com
Writing library                          : x264 core 129 r2230 1cffe9f
Language                                 : English
Default                                  : Yes
Forced                                   : No

Audio #1
ID                                       : 2
Format                                   : AC-3
Format/Info                              : Audio Coding 3
Mode extension                           : CM (complete main)
Format settings, Endianness              : Big
Codec ID                                 : A_AC3
Duration                                 : 1h 50mn
Bit rate mode                            : Constant
Bit rate                                 : 192 Kbps
Channel(s)                               : 2 channels
Channel positions                        : Front: L R
Sampling rate                            : 48.0 KHz
Bit depth                                : 16 bits
Compression mode                         : Lossy
Stream size                              : 152 MiB (6%)
Title                                    : www.club-hd.com  >>  Latino
Language                                 : Spanish
Default                                  : Yes
Forced                                   : No

Audio #2
ID                                       : 3
Format                                   : AC-3
Format/Info                              : Audio Coding 3
Mode extension                           : CM (complete main)
Format settings, Endianness              : Big
Codec ID                                 : A_AC3
Duration                                 : 1h 50mn
Bit rate mode                            : Constant
Bit rate                                 : 448 Kbps
Channel(s)                               : 6 channels
Channel positions                        : Front: L C R, Side: L R, LFE
Sampling rate                            : 48.0 KHz
Bit depth                                : 16 bits
Compression mode                         : Lossy
Stream size                              : 354 MiB (14%)
Title                                    : www.club-hd.com  >>  Inglés
Language                                 : English
Default                                  : No
Forced                                   : No

Text
ID                                       : 4
Format                                   : UTF-8
Codec ID                                 : S_TEXT/UTF8
Codec ID/Info                            : UTF-8 Plain Text
Language                                 : Spanish
Default                                  : No
Forced                                   : No

Menu
00:00:00.000                             : en:Chapter 1
00:06:53.038                             : en:Chapter 2
00:14:26.115                             : en:Chapter 3
00:20:37.987                             : en:Chapter 4
00:27:05.916                             : en:Chapter 5
00:33:35.722                             : en:Chapter 6
00:38:01.112                             : en:Chapter 7
00:45:08.205                             : en:Chapter 8
00:52:11.295                             : en:Chapter 9
00:59:04.207                             : en:Chapter 10
01:09:26.496                             : en:Chapter 11
01:17:18.133                             : en:Chapter 12
01:20:54.641                             : en:Chapter 13
01:26:29.393                             : en:Chapter 14
01:35:36.814                             : en:Chapter 15
01:41:13.192                             : en:Chapter 16




Descarga.jpg



google-drive-vip.png


Tenemos TODO el material de Club-HD disponible por Mega, enlaces 100% activos y online hasta la fecha

Llévate tus cuentas Mega PRO III gratis con tu membresía VIP!
Todos los posts vivos con links de Mega.
Todo el material de Club-HD desbloqueado y sin publicidad.

Obtén más información sobre nuestras Membresías VIP




MEGA.jpg

Tenemos TODO el material de Club-HD disponible por Mega, enlaces 100% activos y online hasta la fecha

Llévate tus cuentas Mega PRO III gratis con tu membresía VIP!
Todos los posts vivos con links de Mega.
Todo el material de Club-HD desbloqueado y sin publicidad.

Obtén más información sobre nuestras Membresías VIP



UPLOADED_BANNER.png

Para ver este contenido oculto, debes dar click en el botón"Like", o cualquiera de las otras reacciones:

Me Gusta Me Gusta, Me Encanta Me Encanta, Jaja Jaja, Wow Wow, Triste Triste, Molesto Molesto

OPENLOAD.png


Para ver este contenido oculto, debes dar click en el botón"Like", o cualquiera de las otras reacciones:

Me Gusta Me Gusta, Me Encanta Me Encanta, Jaja Jaja, Wow Wow, Triste Triste, Molesto Molesto
 
Última edición por un moderador:
bye Graciasssssss!!! Parece entretenida, por la trama :D:D:D Como siempre, trayendo lo mejor!!! Saludos:dplgar:
 
Volver