Shakira - Live From Paris (2011) 720p [AC3 5.1] [DTS] (Concierto)

Maestro Revolver

Well-known member
Miembro del Staff
Administrador
Registro
9 Ago 2012
Mensajes
3.569
Reacciones
59.366
Puntos
113

Reputation:








Interprete: Shakira
Artista: Shakira
Titulo: Shakira Live From Paris
Año: 2011
Genero: Latino, Pop, Concierto.




En vivo desde París (conocido como Shakira: Live From París fuera del mundo hispano) es el cuarto álbum en vivo de la cantante colombiana Shakira, grabado en los conciertos del 13 y 14 de junio en el Palais de Bercy en París durante la gira musical Sale el Sol World Tour. Fue lanzado a nivel mundial el 6 de diciembre de 2011. El álbum en vivo fue dirigido por el director Nick Wickham, quien ya había trabajado con anterioridad con el DVD del Tour Fijación Oral



Track List:

01. Pienso en Ti
02. Why Wait
03. Te Dejo Madrid
04. Si Te Vas
05. Whenever Wherever
06. Inevitable
07. Nothing Else Matters
08. Despedida
09. Gypsy
10. Tortura
11. Ciega Sordomuda
12. Underneath Your Clothes
13. Gordita
14. Sale el Sol
15. Las de la Intuicion
16. Loca
17. She Wolf
18. Ojos Asi
19. Antes de las Seis
20. Je L'Aime a Mourir
21. Hips Don't Lie
22. Waka Waka






























La pelicula NO tiene ninguna marca... solo coloque mi nombre de usuario en las capturas





Código:
Format                                   : Matroska
Format version                           : Version 2
File size                                : 5.64 GiB
Duration                                 : 1h 39mn
Overall bit rate                         : 8 077 Kbps
Movie name                               : www.club-hd.com
Encoded date                             : UTC 2012-06-18 22:35:59
Writing application                      : mkvmerge v5.2.1 ('A Far Off Place') built on Jan  2 2012 23:21:10
Writing library                          : libebml v1.2.3 + libmatroska v1.3.0

Video
ID                                       : 1
Format                                   : AVC
Format/Info                              : Advanced Video Codec
Format profile                           : High@L4.1
Format settings, CABAC                   : Yes
Format settings, ReFrames                : 9 frames
Muxing mode                              : Header stripping
Codec ID                                 : V_MPEG4/ISO/AVC
Duration                                 : 1h 39mn
Bit rate                                 : 5 928 Kbps
Width                                    : 1 280 pixels
Height                                   : 720 pixels
Display aspect ratio                     : 16:9
Frame rate                               : 29.970 fps
Color space                              : YUV
Chroma subsampling                       : 4:2:0
Bit depth                                : 8 bits
Scan type                                : Progressive
Bits/(Pixel*Frame)                       : 0.215
Stream size                              : 4.03 GiB (71%)
Title                                    : www.club-hd.com
Writing library                          : x264 core 119 r2106 07efeb4
Language                                 : English
Default                                  : Yes
Forced                                   : No

Audio #1
ID                                       : 2
Format                                   : AC-3
Format/Info                              : Audio Coding 3
Mode extension                           : CM (complete main)
Format settings, Endianness              : Big
Muxing mode                              : Header stripping
Codec ID                                 : A_AC3
Duration                                 : 1h 39mn
Bit rate mode                            : Constant
Bit rate                                 : 640 Kbps
Channel(s)                               : 6 channels
Channel positions                        : Front: L C R, Side: L R, LFE
Sampling rate                            : 48.0 KHz
Bit depth                                : 16 bits
Compression mode                         : Lossy
Stream size                              : 458 MiB (8%)
Title                                    : www.club-hd.com  >> Ac3 5.1 640 Kbps
Language                                 : English
Default                                  : Yes
Forced                                   : No

Audio #2
ID                                       : 3
Format                                   : DTS
Format/Info                              : Digital Theater Systems
Muxing mode                              : Header stripping
Codec ID                                 : A_DTS
Duration                                 : 1h 39mn
Bit rate mode                            : Constant
Bit rate                                 : 1 510 Kbps
Channel(s)                               : 6 channels
Channel positions                        : Front: L C R, Side: L R, LFE
Sampling rate                            : 48.0 KHz
Bit depth                                : 24 bits
Compression mode                         : Lossy
Stream size                              : 1.05 GiB (19%)
Title                                    : www.club-hd.com  >>  Dts  5.1  1 510 Kbps
Language                                 : English
Default                                  : No
Forced                                   : No











Enlaces de Mega y Fireload solo disponibles para Miembros VIP

Compra tu Membresía VIP y apoya a Club-HD!

ATENCIÓN! Tenemos TODO el material de Club-HD disponible por Mega y Fireload, enlaces 100% activos y online hasta la fecha

Llévate tus cuentas Mega PRO II gratis con tu membresía VIP!
Todos los posts vivos con links de Mega y Fireload.
Todo el material de Club-HD desbloqueado y sin publicidad.

Click Aquí para más información.



Enlaces de Mega y Fireload solo disponibles para Miembros VIP

Compra tu Membresía VIP y apoya a Club-HD!

ATENCIÓN! Tenemos TODO el material de Club-HD disponible por Mega y Fireload, enlaces 100% activos y online hasta la fecha

Llévate tus cuentas Mega PRO II gratis con tu membresía VIP!
Todos los posts vivos con links de Mega y Fireload.
Todo el material de Club-HD desbloqueado y sin publicidad.

Click Aquí para más información.


Para ver este contenido oculto, debes dar click en una de las siguientes reacciones : Like Like, Love Love, Haha Haha, Wow Wow, Sad Sad, Angry Angry
 
Última edición:

Bernal

Well-known member
Registro
28 Ago 2012
Mensajes
1.484
Reacciones
237
Puntos
63

Reputation:

Wooo super espectacular jejej solo una consultita q posibilidad habria de surbirla por separados los temas solo es pregunta o talvez podria recomendarme algun programa o forma de separarla sin tocar la calidad
 

Usuarios Que Están Viendo Este Tema (Total: 1, Miembros: 0, Invitados: 1)

Arriba