• Buenos dias amigos del club. Les queremos avisar que ya recuperamos el acceso a las webs de las Membresías VIP y del Paste. Asi que ya pueden comprar sus membresías y descargar todos los estrenos nuevamente.

Shakira - Oral fixation tour (2007) 1080p BDRip [AC3 - DTS 5.1] (Concierto)

Maestro Revolver

Administrador
Registro
9 Ago 2012
Mensajes
3.157
Reacciones (ptje)
55.322

Shakira-Oral-fixation-tour.jpg





Sinopsis.jpg


Con los dos álbumes (Fijación Oral vol.1/2) ya en la calle, Shakira emprendió en Junio de 2006 su tour más largo hasta el momento, el “Tour Fijación Oral”. 140 conciertos (98 de los cuales vendieron todos los boletos) que llegaron a los fans de América del Norte, Europa, África, Sur-Este de Asia y América Latina. Shakira hizo historia otra vez al actuar enfrente de más de 200.000 personas en la plaza del Zócalo de México. Igualmente Shakira también actuó en las Pirámides de Egipto y por primera vez en Dubai.



Track List:

01 - Intro
02 - Estoy aquí
03 - Te dejo Madrid
04 - Don't bother
05 - Antología
06 - Hey you
07 - Inevitable
08 - Si te vas
09 - La tortura (con Alejandro Sanz)
10 - No
11 - Whenever, wherever
12 - La pared
13 - Underneath your clothes
14 - Pies descalzos
15 - Ciega, sordomuda
16 - Ojos así
17 - Hips don't lie (con Wyclef Jean)
18 - Créditos




Trailer.jpg






Capturas.jpg


1.jpg


2.jpg


3.jpg


4.jpg


5.jpg


6.jpg





MediaInfo.jpg


Código:
General
Format                                   : Matroska
Format version                           : Version 2
File size                                : 4.79 GiB
Duration                                 : 1h 32mn
Overall bit rate                         : 7 375 Kbps
Movie name                               : www.club-hd.com
Encoded date                             : UTC 2013-07-25 22:37:11
Writing application                      : mkvmerge v5.7.0 ('The Whirlwind') built on Jul  8 2012 20:08:51
Writing library                          : libebml v1.2.3 + libmatroska v1.3.0

Video
ID                                       : 1
Format                                   : AVC
Format/Info                              : Advanced Video Codec
Format profile                           : [email protected]
Format settings, CABAC                   : Yes
Format settings, ReFrames                : 4 frames
Codec ID                                 : V_MPEG4/ISO/AVC
Duration                                 : 1h 32mn
Bit rate                                 : 5 228 Kbps
Width                                    : 1 920 pixels
Height                                   : 1 080 pixels
Display aspect ratio                     : 16:9
Frame rate mode                          : Constant
Frame rate                               : 23.976 fps
Color space                              : YUV
Chroma subsampling                       : 4:2:0
Bit depth                                : 8 bits
Scan type                                : Progressive
Bits/(Pixel*Frame)                       : 0.105
Stream size                              : 3.30 GiB (69%)
Title                                    : www.club-hd.com
Writing library                          : x264 core 104 r1675 2484aa0
Language                                 : English
Default                                  : Yes
Forced                                   : No

Audio #1
ID                                       : 2
Format                                   : AC-3
Format/Info                              : Audio Coding 3
Mode extension                           : CM (complete main)
Format settings, Endianness              : Big
Codec ID                                 : A_AC3
Duration                                 : 1h 32mn
Bit rate mode                            : Constant
Bit rate                                 : 640 Kbps
Channel(s)                               : 6 channels
Channel positions                        : Front: L C R, Side: L R, LFE
Sampling rate                            : 48.0 KHz
Bit depth                                : 16 bits
Compression mode                         : Lossy
Stream size                              : 426 MiB (9%)
Title                                    : AC3
Language                                 : Spanish
Default                                  : Yes
Forced                                   : No

Audio #2
ID                                       : 3
Format                                   : DTS
Format/Info                              : Digital Theater Systems
Mode                                     : 16
Format settings, Endianness              : Big
Codec ID                                 : A_DTS
Duration                                 : 1h 32mn
Bit rate mode                            : Constant
Bit rate                                 : 1 510 Kbps
Channel(s)                               : 6 channels
Channel positions                        : Front: L C R, Side: L R, LFE
Sampling rate                            : 48.0 KHz
Bit depth                                : 24 bits
Compression mode                         : Lossy
Stream size                              : 1 004 MiB (20%)
Title                                    : DTS
Language                                 : Spanish
Default                                  : No
Forced                                   : No

Menu
00:00:00.000                             : :01 - Intro
00:01:57.826                             : es:02 - Estoy aquí
00:06:32.975                             : es:03 - Te dejo Madrid
00:09:31.153                             : en:04 - Don't bother
00:14:19.900                             : es:05 - Antología
00:19:04.560                             : en:06 - Hey you
00:23:11.807                             : es:07 - Inevitable
00:27:26.227                             : es:08 - Si te vas
00:31:49.991                             : es:09 - La tortura (con Alejandro Sanz)
00:38:12.540                             : es:10 - No
00:43:11.505                             : en:11 - Whenever, wherever
00:58:55.031                             : es:12 - La pared
01:02:39.547                             : en:13 - Underneath your clothes
01:06:43.165                             : es:14 - Pies descalzos
01:09:55.774                             : es:15 - Ciega, sordomuda
01:15:30.692                             : es:16 - Ojos así
01:22:41.414                             : en:17 - Hips don't lie (con Wyclef Jean)
01:29:35.453                             : :18 - Créditos




Descarga.jpg



MEGA.jpg

Tenemos TODO el material de Club-HD disponible por Mega, enlaces 100% activos y online hasta la fecha

Llévate tus cuentas Mega PRO III gratis con tu membresía VIP!
Todos los posts vivos con links de Mega.
Todo el material de Club-HD desbloqueado y sin publicidad.

Obtén más información sobre nuestras Membresías VIP


UPLOADED_BANNER.png

Para ver este contenido oculto, debes dar click en el botón"Like", o cualquiera de las otras reacciones:

Me Gusta Me Gusta, Me Encanta Me Encanta, Jaja Jaja, Wow Wow, Triste Triste, Molesto Molesto

 
Última edición por un moderador:
:dplgar: Excelente Aporte, porque guit4r_2 En Barranquilla se Baila Así guit4r_2, y que viva Colombia :dplgar:, Muchisimas gracias Revol por este gran aporte :aplausos:
 
ohhhhh conciertos latinos me agradan , Gracias R22 muy agradecido es de lo mejor saludos
 
Volver