Shanghai Noon (2000) 1080p BDRip Dual Latino-Inglés [Subt. Esp] (Comedia. Aventuras. Western)

Max

Admin

Administrador
Registro
8 Ago 2012
Mensajes
6.358
Reacciones (ptje)
27.029

Shanghai_Noon_POSTER.jpg



Título original: Shanghai Noon
Título en Latino: Shanghai Kid
Año: 2000
Duración: 110 min.
País: Estados Unidos
Director: Tom Dey
Guión: Miles Millar & Alfred Gough
Música: Randy Edelman
Fotografía: Dan Mindel
Reparto: Jackie Chan, Owen Wilson, Lucy Liu, Brandon Merrill, Roger Yuan, Xander Berkeley, Walton Goggins
Productora: Touchstone Pictures
Género: Comedia. Aventuras. Western | Buddy Film

IMDb.png
http://www.imdb.com/title/tt0184894/?ref_=ttrel_rel_tt


SINOPSIS.png


Chon Wang es un guardián del emperador chino. Cuando la princesa Pei Pei es secuestrada de la Ciudad Prohibida imperial, Wang se siente personalmente responsable e insiste en unirse a los guardas encargados de rescatarla. Pero ella ha sido llevada a los EE.UU. Tras una persecución en Nevada, Wang se separa del grupo y pronto se encuentra junto al timador Roy O´Bannon, que le ayudará mal que bien a conseguir cumplir su misión.




YOUTUBE_LOGO.png






CAPTURAS.png


Shanghai_Noon_CAPTURA-1.jpg


Shanghai_Noon_CAPTURA-2.jpg


Shanghai_Noon_CAPTURA-3.jpg


Shanghai_Noon_CAPTURA-4.jpg


Shanghai_Noon_CAPTURA-5.jpg


Shanghai_Noon_CAPTURA-6.jpg


Shanghai_Noon_CAPTURA-7.jpg





DATOS_TECNICOS.png


Código:
General
Complete name                            : Shanghai Noon (2000) 1080p BDRip Dual Latino-Ingles [Subt. Esp].mkv
Format                                   : Matroska
Format version                           : Version 4 / Version 2
File size                                : 13.0 GiB
Duration                                 : 1h 50mn
Overall bit rate                         : 16.8 Mbps
Movie name                               : www.club-hd.com --> Shanghai Noon (2000) 1080p BDRip Dual Latino-Ingles [Subt. Esp]
Encoded date                             : UTC 2014-03-28 22:48:27
Writing application                      : mkvmerge v6.8.0 ('Theme for Great Cities') 64bit built on Mar  2 2014 21:34:26
Writing library                          : libebml v1.3.0 + libmatroska v1.4.1

Video
ID                                       : 1
Format                                   : AVC
Format/Info                              : Advanced Video Codec
Format profile                           : [email protected]
Format settings, CABAC                   : Yes
Format settings, ReFrames                : 4 frames
Codec ID                                 : V_MPEG4/ISO/AVC
Duration                                 : 1h 50mn
Bit rate                                 : 14.8 Mbps
Width                                    : 1 920 pixels
Height                                   : 818 pixels
Display aspect ratio                     : 2.35:1
Frame rate mode                          : Constant
Frame rate                               : 23.976 fps
Color space                              : YUV
Chroma subsampling                       : 4:2:0
Bit depth                                : 8 bits
Scan type                                : Progressive
Bits/(Pixel*Frame)                       : 0.393
Stream size                              : 11.1 GiB (86%)
Title                                    : Shanghai Noon (2000) 1080p BDRip Dual Latino-Ingles [Subt. Esp]
Writing library                          : x264 core 133 r2334 a3ac64b
Encoding settings                        : cabac=1 / ref=4 / deblock=1:-3:-3 / analyse=0x3:0x133 / me=umh / subme=11 / psy=1 / psy_rd=1.00:0.00 / mixed_ref=1 / me_range=32 / chroma_me=1 / trellis=2 / 8x8dct=1 / cqm=0 / deadzone=21,11 / fast_pskip=0 / chroma_qp_offset=-2 / threads=12 / lookahead_threads=1 / sliced_threads=0 / nr=0 / decimate=0 / interlaced=0 / bluray_compat=0 / constrained_intra=0 / bframes=6 / b_pyramid=2 / b_adapt=2 / b_bias=0 / direct=3 / weightb=1 / open_gop=0 / weightp=2 / keyint=240 / keyint_min=23 / scenecut=40 / intra_refresh=0 / rc_lookahead=60 / rc=2pass / mbtree=1 / bitrate=14800 / ratetol=1.0 / qcomp=0.60 / qpmin=0 / qpmax=69 / qpstep=4 / cplxblur=20.0 / qblur=0.5 / vbv_maxrate=45000 / vbv_bufsize=45000 / nal_hrd=none / ip_ratio=1.40 / aq=1:0.60
Language                                 : English
Default                                  : Yes
Forced                                   : No

Audio #1
ID                                       : 2
Format                                   : AC-3
Format/Info                              : Audio Coding 3
Mode extension                           : CM (complete main)
Format settings, Endianness              : Big
Codec ID                                 : A_AC3
Duration                                 : 1h 50mn
Bit rate mode                            : Constant
Bit rate                                 : 640 Kbps
Channel(s)                               : 6 channels
Channel positions                        : Front: L C R, Side: L R, LFE
Sampling rate                            : 48.0 KHz
Bit depth                                : 16 bits
Compression mode                         : Lossy
Stream size                              : 506 MiB (4%)
Title                                    : Shanghai Noon (2000) - Español Latino AC3 5.1
Language                                 : Spanish
Default                                  : Yes
Forced                                   : No

Audio #2
ID                                       : 3
Format                                   : AC-3
Format/Info                              : Audio Coding 3
Mode extension                           : CM (complete main)
Format settings, Endianness              : Big
Codec ID                                 : A_AC3
Duration                                 : 1h 50mn
Bit rate mode                            : Constant
Bit rate                                 : 640 Kbps
Channel(s)                               : 6 channels
Channel positions                        : Front: L C R, Side: L R, LFE
Sampling rate                            : 48.0 KHz
Bit depth                                : 16 bits
Compression mode                         : Lossy
Stream size                              : 506 MiB (4%)
Title                                    : Shanghai Noon (2000) - Inglés AC3 5.1
Language                                 : English
Default                                  : No
Forced                                   : No

Audio #3
ID                                       : 4
Format                                   : DTS
Format/Info                              : Digital Theater Systems
Mode                                     : 16
Format settings, Endianness              : Big
Codec ID                                 : A_DTS
Duration                                 : 1h 50mn
Bit rate mode                            : Constant
Bit rate                                 : 755 Kbps
Channel(s)                               : 6 channels
Channel positions                        : Front: L C R, Side: L R, LFE
Sampling rate                            : 48.0 KHz
Bit depth                                : 24 bits
Compression mode                         : Lossy
Stream size                              : 596 MiB (4%)
Title                                    : Shanghai Noon (2000) - Inglés DTS 5.1
Language                                 : English
Default                                  : No
Forced                                   : No

Text
ID                                       : 5
Format                                   : UTF-8
Codec ID                                 : S_TEXT/UTF8
Codec ID/Info                            : UTF-8 Plain Text
Title                                    : Shanghai Noon (2000) - Subtítulos Español
Language                                 : Spanish
Default                                  : No
Forced                                   : No

Menu
00:00:00.000                             : en:00:00:00.000
00:04:32.439                             : en:00:04:32.439
00:06:12.914                             : en:00:06:12.914
00:15:02.318                             : en:00:15:02.318
00:17:35.930                             : en:00:17:35.930
00:21:13.272                             : en:00:21:13.272
00:25:57.973                             : en:00:25:57.973
00:30:31.288                             : en:00:30:31.288
00:31:55.831                             : en:00:31:55.831
00:38:46.199                             : en:00:38:46.199
00:47:25.760                             : en:00:47:25.760
00:53:10.479                             : en:00:53:10.479
01:03:08.827                             : en:01:03:08.827
01:10:30.059                             : en:01:10:30.059
01:12:53.869                             : en:01:12:53.869
01:15:15.010                             : en:01:15:15.010
01:17:24.390                             : en:01:17:24.390
01:19:54.832                             : en:01:19:54.832
01:21:49.488                             : en:01:21:49.488
01:23:40.557                             : en:01:23:40.557
01:26:12.125                             : en:01:26:12.125
01:29:32.951                             : en:01:29:32.951
01:33:43.368                             : en:01:33:43.368
01:35:21.132                             : en:01:35:21.132
01:36:44.757                             : en:01:36:44.757
01:40:31.943                             : en:01:40:31.943
01:42:05.953                             : en:01:42:05.953
01:43:24.907                             : en:01:43:24.907




DESCARGA.png



MEGA.jpg

Tenemos TODO el material de Club-HD disponible por Mega, enlaces 100% activos y online hasta la fecha

Llévate tus cuentas Mega PRO III gratis con tu membresía VIP!
Todos los posts vivos con links de Mega.
Todo el material de Club-HD desbloqueado y sin publicidad.

Obtén más información sobre nuestras Membresías VIP



UPLOADED_BANNER.png

Para ver este contenido oculto, debes dar click en el botón"Like", o cualquiera de las otras reacciones:

Me Gusta Me Gusta, Me Encanta Me Encanta, Jaja Jaja, Wow Wow, Triste Triste, Molesto Molesto

 
Última edición por un moderador:
Re: Shanghai Noon (2000) 1080p BDRip Dual Latino-Inglés [Subt. Esp] (Comedia, Aventuras, Western)

Muy bueno max ....exelente graciasssss
 
Re: Shanghai Noon (2000) 1080p BDRip Dual Latino-Inglés [Subt. Esp] (Comedia, Aventuras, Western)

Desc_g_
 
Re: Shanghai Noon (2000) 1080p BDRip Dual Latino-Inglés [Subt. Esp] (Comedia, Aventuras, Western)

Buenisima! muchas gracias :D
 
Re: Shanghai Noon (2000) 1080p BDRip Dual Latino-Inglés [Subt. Esp] (Comedia, Aventuras, Western)

Gracias bajando!
 
Re: Shanghai Noon (2000) 1080p BDRip Dual Latino-Inglés [Subt. Esp] (Comedia, Aventuras, Western)

Gracias >:D
 
Re: Shanghai Noon (2000) 1080p BDRip Dual Latino-Inglés [Subt. Esp] (Comedia, Aventuras, Western)

Gracias!
 
Re: Shanghai Noon (2000) 1080p BDRip Dual Latino-Inglés [Subt. Esp] (Comedia, Aventuras, Western)

Muchas gracias
 
Re: Shanghai Noon (2000) 1080p BDRip Dual Latino-Inglés [Subt. Esp] (Comedia, Aventuras, Western)

Desc_g_
 
Re: Shanghai Noon (2000) 1080p BDRip Dual Latino-Inglés [Subt. Esp] (Comedia, Aventuras, Western)

Pl4yb0yGracias Max.....excelente aporte:dplgar:
 
Re: Shanghai Noon (2000) 1080p BDRip Dual Latino-Inglés [Subt. Esp] (Comedia, Aventuras, Western)

Gracias exelente pelicula :) pero la esperare en 720P
 
Re: Shanghai Noon (2000) 1080p BDRip Dual Latino-Inglés [Subt. Esp] (Comedia, Aventuras, Western)

gracias
 
Re: Shanghai Noon (2000) 1080p BDRip Dual Latino-Inglés [Subt. Esp] (Comedia, Aventuras, Western)

Muchas Gracias!!!


-Doctor.......me duele la panzita, no me quiere examinar a ver que tengo?

Lucy-Liu-1.JPG


-Sí, por supuesto......pero para poder revisarla mejor.........sáquese la ropita, por favor.Mlevol0
 
Re: Shanghai Noon (2000) 1080p BDRip Dual Latino-Inglés [Subt. Esp] (Comedia, Aventuras, Western)

excelente pelicula :aplausos: muchas Gracias Max, ojala la subas en 720p
 
Re: Shanghai Noon (2000) 1080p BDRip Dual Latino-Inglés [Subt. Esp] (Comedia, Aventuras, Western)

Muchas gracias
 
Re: Shanghai Noon (2000) 1080p BDRip Dual Latino-Inglés [Subt. Esp] (Comedia, Aventuras, Western)

Gracias!
 
Re: Shanghai Noon (2000) 1080p BDRip Dual Latino-Inglés [Subt. Esp] (Comedia, Aventuras, Western)

gracias! esperando versión 720p Pnsand0
 
Re: Shanghai Noon (2000) 1080p BDRip Dual Latino-Inglés [Subt. Esp] (Comedia, Aventuras, Western)

gracias
 
Re: Shanghai Noon (2000) 1080p BDRip Dual Latino-Inglés [Subt. Esp] (Comedia, Aventuras, Western)

gracias!
 
Re: Shanghai Noon (2000) 1080p BDRip Dual Latino-Inglés [Subt. Esp] (Comedia, Aventuras, Western)

Gracias Max !!!:dplgar:
 
Volver