Short Term 12 (2013) 720p BDRip Audio Inglés [Subt. Esp] (Drama)

Maestro Revolver

Administrador
Registro
9 Ago 2012
Mensajes
3.157
Reacciones (ptje)
55.166


Short-Term-12.jpg




FichaTecnica.jpg


TÍTULO ORIGINAL: Short Term 12
AÑO: 2013
DURACIÓN: 96 min.
PAÍS: USA
DIRECTOR: Destin Cretton
GUIÓN: Destin Cretton
REPARTO: Brie Larson, John Gallagher Jr., Kaitlyn Dever, Stephanie Beatriz, Rami Malek, Alex Calloway, Melora Walters
PRODUCTORA: Cinedigm
GÉNERO: Drama | Cine independiente USA
imdb-logo.png
: http://www.imdb.com/title/tt2370248/

Premios: 2013: Seminci de Valladolid: Sección oficial a concurso
2013: Premios Gotham: Mejor actriz (Brie Larson)
2013: National Board of Review (NBR): Top 10 películas independientes
2013: Independent Spirit Awards: 3 nominaciones, incluyendo mejor actriz (Larson)
2013: Satellite Awards: Nominada a mejor canción original





Sinopsis.jpg


Grace es una joven de veintitantos años que trabaja como supervisora en Short Term 12, un centro de acogida para adolescentes en situación de vulnerabilidad. Le encanta su empleo y está entregada al cuidado de los chavales, pero al mismo tiempo se debate con su propio pasado conflictivo. Cuando ingresa en el centro una chica inteligente e inquieta llamada Jayden, Grace se da cuenta de que no puede seguir dando la espalda a los problemas que arrastra desde su propia infancia.




Trailer.jpg






Capturas.jpg


1.jpg


2.jpg


3.jpg


4.jpg


5.jpg


6.jpg


La pelicula NO tiene ninguna marca... solo colocamos el nombre de esta web en las capturas




MediaInfo.jpg


Código:
General
Format                                   : Matroska
Format version                           : Version 2
File size                                : 3.65 GiB
Duration                                 : 1h 36mn
Overall bit rate                         : 5 397 Kbps
Movie name                               : www.club-hd.com
Encoded date                             : UTC 2014-01-08 01:21:18
Writing application                      : mkvmerge v5.7.0 ('The Whirlwind') built on Jul  8 2012 20:08:51
Writing library                          : libebml v1.2.3 + libmatroska v1.3.0

Video
ID                                       : 1
Format                                   : AVC
Format/Info                              : Advanced Video Codec
Format profile                           : [email protected]
Format settings, CABAC                   : Yes
Format settings, ReFrames                : 5 frames
Muxing mode                              : Header stripping
Codec ID                                 : V_MPEG4/ISO/AVC
Duration                                 : 1h 36mn
Bit rate                                 : 4 949 Kbps
Width                                    : 1 280 pixels
Height                                   : 688 pixels
Display aspect ratio                     : 1.85:1
Frame rate mode                          : Constant
Frame rate                               : 23.976 fps
Color space                              : YUV
Chroma subsampling                       : 4:2:0
Bit depth                                : 8 bits
Scan type                                : Progressive
Bits/(Pixel*Frame)                       : 0.234
Stream size                              : 3.27 GiB (90%)
Title                                    : www.club-hd.com
Writing library                          : x264 core 140 r2377 1ca7bb9
Language                                 : English
Default                                  : Yes
Forced                                   : No

Audio
ID                                       : 2
Format                                   : AC-3
Format/Info                              : Audio Coding 3
Mode extension                           : CM (complete main)
Format settings, Endianness              : Big
Muxing mode                              : Header stripping
Codec ID                                 : A_AC3
Duration                                 : 1h 36mn
Bit rate mode                            : Constant
Bit rate                                 : 448 Kbps
Channel(s)                               : 6 channels
Channel positions                        : Front: L C R, Side: L R, LFE
Sampling rate                            : 48.0 KHz
Bit depth                                : 16 bits
Compression mode                         : Lossy
Stream size                              : 310 MiB (8%)
Title                                    : www.club-hd.com
Language                                 : English
Default                                  : Yes
Forced                                   : No

Text
ID                                       : 3
Format                                   : UTF-8
Codec ID                                 : S_TEXT/UTF8
Codec ID/Info                            : UTF-8 Plain Text
Title                                    : www.club-hd.com
Language                                 : Spanish
Default                                  : Yes
Forced                                   : No




Descarga.jpg



MEGA.jpg

Tenemos TODO el material de Club-HD disponible por Mega, enlaces 100% activos y online hasta la fecha

Llévate tus cuentas Mega PRO III gratis con tu membresía VIP!
Todos los posts vivos con links de Mega.
Todo el material de Club-HD desbloqueado y sin publicidad.

Obtén más información sobre nuestras Membresías VIP



UPLOADED_BANNER.png

Para ver este contenido oculto, debes dar click en el botón"Like", o cualquiera de las otras reacciones:

Me Gusta Me Gusta, Me Encanta Me Encanta, Jaja Jaja, Wow Wow, Triste Triste, Molesto Molesto

 
Última edición por un moderador:
:D esperemos que este buena, tiene buen puntaje, muchas Gracias master
 
siguen muy interesantes las pelis del día de la fechaTb_up3
Desc_g_
 
Volver