Side Effects (2013) 720p BDRip Audio Inglés [Subt. Esp] (Thriller. Intriga)

Maestro Revolver

Well-known member
Miembro del Staff
Administrador
Registro
9 Ago 2012
Mensajes
3.567








TÍTULO ORIGINAL: Side Effects
AÑO: 2013
DURACIÓN: 105 min.
PAÍS: USA
DIRECTOR: Steven Soderbergh
GUIÓN: Scott Z. Burns
REPARTO: Rooney Mara, Jude Law, Catherine Zeta-Jones, Channing Tatum, Vinessa Shaw, David Costabile, Andrea Bogart, Polly Draper, Mamie Gummer
PRODUCTORA: Entertainment One / 1984 Private Defense Contractors / Di Bonaventura Pictures / Endgame Entertainment
GÉNERO: Thriller. Intriga | Medicina. Drogas. Crimen
: http://www.imdb.com/title/tt2053463/






Ambientada en el mundo de la psicofarmacología, ciencia que estudia cómo afectan las drogas a la mente humana. Emily (Rooney Mara) es una joven que se vuelve adicta a un nuevo medicamento que le receta su psiquiatra (Jude Law), que se la proporciona para poder manejar su ansiedad por la inminente liberación de la cárcel de su esposo Martin (Channing Tatum).
























La pelicula NO tiene ninguna marca... solo colocamos el nombre de esta web en las capturas






Código:
General
Format                                   : Matroska
Format version                           : Version 2
File size                                : 3.58 GiB
Duration                                 : 1h 46mn
Overall bit rate                         : 4 818 Kbps
Movie name                               : www.club-hd.com
Encoded date                             : UTC 2013-05-10 23:16:47
Writing application                      : mkvmerge v5.7.0 ('The Whirlwind') built on Jul  8 2012 20:08:51
Writing library                          : libebml v1.2.3 + libmatroska v1.3.0

Video
ID                                       : 1
Format                                   : AVC
Format/Info                              : Advanced Video Codec
Format profile                           : High@L4.1
Format settings, CABAC                   : Yes
Format settings, ReFrames                : 5 frames
Codec ID                                 : V_MPEG4/ISO/AVC
Duration                                 : 1h 46mn
Bit rate                                 : 4 369 Kbps
Width                                    : 1 280 pixels
Height                                   : 696 pixels
Display aspect ratio                     : 1.85:1
Frame rate mode                          : Constant
Frame rate                               : 23.976 fps
Color space                              : YUV
Chroma subsampling                       : 4:2:0
Bit depth                                : 8 bits
Scan type                                : Progressive
Bits/(Pixel*Frame)                       : 0.205
Stream size                              : 3.18 GiB (89%)
Title                                    : www.club-hd.com
Writing library                          : x264 core 130 r2273 b3065e6
Language                                 : English
Default                                  : Yes
Forced                                   : No

Audio
ID                                       : 2
Format                                   : AC-3
Format/Info                              : Audio Coding 3
Mode extension                           : CM (complete main)
Format settings, Endianness              : Big
Codec ID                                 : A_AC3
Duration                                 : 1h 46mn
Bit rate mode                            : Constant
Bit rate                                 : 448 Kbps
Channel(s)                               : 6 channels
Channel positions                        : Front: L C R, Side: L R, LFE
Sampling rate                            : 48.0 KHz
Bit depth                                : 16 bits
Compression mode                         : Lossy
Stream size                              : 341 MiB (9%)
Title                                    : www.club-hd.com
Language                                 : English
Default                                  : Yes
Forced                                   : No

Text
ID                                       : 3
Format                                   : UTF-8
Codec ID                                 : S_TEXT/UTF8
Codec ID/Info                            : UTF-8 Plain Text
Language                                 : Spanish
Default                                  : Yes
Forced                                   : No

Menu
00:00:00.000                             : en:00:00:00.000
00:05:24.324                             : en:00:05:24.324
00:07:59.437                             : en:00:07:59.437
00:13:06.452                             : en:00:13:06.452
00:18:22.935                             : en:00:18:22.935
00:23:39.335                             : en:00:23:39.335
00:30:36.960                             : en:00:30:36.960
00:34:43.540                             : en:00:34:43.540
00:37:39.632                             : en:00:37:39.632
00:44:33.921                             : en:00:44:33.921
00:51:34.717                             : en:00:51:34.717
00:58:22.999                             : en:00:58:22.999
01:03:43.153                             : en:01:03:43.153
01:09:26.996                             : en:01:09:26.996
01:15:53.424                             : en:01:15:53.424
01:21:20.292                             : en:01:21:20.292
01:26:27.766                             : en:01:26:27.766
01:34:25.159                             : en:01:34:25.159
01:38:37.745                             : en:01:38:37.745
01:43:27.618                             : en:01:43:27.618








Enlaces de Mega y Google Drive solo disponibles para Miembros VIP

Compra tu Membresía VIP y apoya a Club-HD!

ATENCIÓN! Tenemos TODO el material de Club-HD disponible por Mega y Google Drive, enlaces 100% activos y online hasta la fecha

Llévate tus cuentas Mega PRO III gratis con tu membresía VIP!
Todos los posts vivos con links de Mega y Google Drive.
Todo el material de Club-HD desbloqueado y sin publicidad.

Click Aquí para más información.


Para ver este contenido oculto, debes dar click en una de las siguientes reacciones : Like Like, Love Love, Haha Haha, Wow Wow, Sad Sad, Angry Angry



 
Última edición por un moderador:

Usuarios Que Están Viendo Este Tema (Total: 1, Miembros: 0, Invitados: 1)

Quién Leyó Este Tema (Total Miembros: 2)

Arriba