Silent Hill (2006) 1080p BDRip Dual Latino-Inglés [Subt. Esp-Ing] (Terror. Fantástico)

Maestro Revolver

Well-known member
Miembro del Staff
Administrador
Registro
9 Ago 2012
Mensajes
3.567

Rep:









TÍTULO ORIGINAL: The Silent Hill
AÑO: 2006
DURACIÓN: 127 min.
PAÍS: Canadá
DIRECTOR: Christophe Gans
GUIÓN: Roger Avary, Roger Roberts (Historia: Christophe Gans & Nicolas Boukhrief)
REPARTO: Radha Mitchell, Laurie Holden, Sean Bean, Deborah Kara Unger, Tanya Allen, Alice Krige, Jodelle Ferland, Kim Coates
PRODUCTORA: Coproducción Canadá-Francia; Silent Hill DCP Inc. / Davis-Films / Konami Corporation / Sony Pictures
GÉNERO: Terror. Fantástico. Intriga | Sobrenatural. Videojuego
: http://www.imdb.es/title/tt0384537/






Rose es una joven madre (Radha Mitchell) que trata de encontrar curación para su hija enferma. Incapaz de resignarse al diagnóstico de los médicos que proponen internarla de forma permanente en un centro psiquiátrico, Rose huye con su hija hasta llegar a una ciudad aparentemente desértica
























La pelicula NO tiene ninguna marca... solo colocamos el nombre de esta web en las capturas






Código:
General
Complete name                            : Silent Hill (2006) 1080p BDRip Dual Latino-Inglés [Subt. Esp-Ing].mkv
Format                                   : Matroska
Format version                           : Version 4 / Version 2
File size                                : 11.9 GiB
Duration                                 : 2h 5mn
Overall bit rate                         : 13.6 Mbps
Movie name                               : www.club-hd.com --> Silent Hill (2006) 1080p BDRip Dual Latino-Inglés [Subt. Esp-Ing]
Encoded date                             : UTC 2015-05-09 23:45:17
Writing application                      : mkvmerge v7.1.0 ('Good Love') 64bit built on Jul 27 2014 13:06:55
Writing library                          : libebml v1.3.0 + libmatroska v1.4.1

Video
ID                                       : 1
Format                                   : AVC
Format/Info                              : Advanced Video Codec
Format profile                           : High@L4.1
Format settings, CABAC                   : Yes
Format settings, ReFrames                : 4 frames
Codec ID                                 : V_MPEG4/ISO/AVC
Duration                                 : 2h 5mn
Bit rate                                 : 10.8 Mbps
Width                                    : 1 920 pixels
Height                                   : 816 pixels
Display aspect ratio                     : 2.35:1
Frame rate mode                          : Constant
Frame rate                               : 23.976 fps
Color space                              : YUV
Chroma subsampling                       : 4:2:0
Bit depth                                : 8 bits
Scan type                                : Progressive
Bits/(Pixel*Frame)                       : 0.287
Stream size                              : 9.43 GiB (79%)
Title                                    : Silent Hill (2006) 1080p BDRip Dual Latino-Inglés [Subt. Esp-Ing]
Writing library                          : x264 core 67 r1125M 10d6ef0
Language                                 : English
Default                                  : Yes
Forced                                   : No

Audio #1
ID                                       : 2
Format                                   : AC-3
Format/Info                              : Audio Coding 3
Mode extension                           : CM (complete main)
Format settings, Endianness              : Big
Codec ID                                 : A_AC3
Duration                                 : 2h 5mn
Bit rate mode                            : Constant
Bit rate                                 : 448 Kbps
Channel(s)                               : 6 channels
Channel positions                        : Front: L C R, Side: L R, LFE
Sampling rate                            : 48.0 KHz
Bit depth                                : 16 bits
Compression mode                         : Lossy
Stream size                              : 402 MiB (3%)
Title                                    : Silent Hill (2006) - Español Latino AC3 5.1 - 448 Kbps
Language                                 : Spanish
Default                                  : Yes
Forced                                   : No

Audio #2
ID                                       : 3
Format                                   : AC-3
Format/Info                              : Audio Coding 3
Mode extension                           : CM (complete main)
Format settings, Endianness              : Big
Codec ID                                 : A_AC3
Duration                                 : 2h 5mn
Bit rate mode                            : Constant
Bit rate                                 : 640 Kbps
Channel(s)                               : 6 channels
Channel positions                        : Front: L C R, Side: L R, LFE
Sampling rate                            : 48.0 KHz
Bit depth                                : 16 bits
Compression mode                         : Lossy
Stream size                              : 574 MiB (5%)
Title                                    : Silent Hill (2006) - Inglés AC3 5.1 - 640 Kbps
Language                                 : English
Default                                  : No
Forced                                   : No

Audio #3
ID                                       : 4
Format                                   : DTS
Format/Info                              : Digital Theater Systems
Mode                                     : 16
Format settings, Endianness              : Big
Codec ID                                 : A_DTS
Duration                                 : 2h 5mn
Bit rate mode                            : Constant
Bit rate                                 : 1 509 Kbps
Channel(s)                               : 6 channels
Channel positions                        : Front: L C R, Side: L R, LFE
Sampling rate                            : 48.0 KHz
Bit depth                                : 24 bits
Compression mode                         : Lossy
Stream size                              : 1.32 GiB (11%)
Title                                    : Silent Hill (2006) - Inglés DTS 5.1 - 1509 Kbps
Language                                 : English
Default                                  : No
Forced                                   : No

Text
ID                                       : 5
Format                                   : UTF-8
Codec ID                                 : S_TEXT/UTF8
Codec ID/Info                            : UTF-8 Plain Text
Title                                    : Silent Hill (2006) - Subtítulos Español
Language                                 : Spanish
Default                                  : No
Forced                                   : No






Código:
[CENTER][SIZE=5]
www.club-hd.com[/SIZE][/CENTER]










Enlaces de Mega y Google Drive solo disponibles para Miembros VIP

Compra tu Membresía VIP y apoya a Club-HD!

ATENCIÓN! Tenemos TODO el material de Club-HD disponible por Mega y Google Drive, enlaces 100% activos y online hasta la fecha

Llévate tus cuentas Mega PRO III gratis con tu membresía VIP!
Todos los posts vivos con links de Mega y Google Drive.
Todo el material de Club-HD desbloqueado y sin publicidad.

Click Aquí para más información.




Enlaces de Mega y Google Drive solo disponibles para Miembros VIP

Compra tu Membresía VIP y apoya a Club-HD!

ATENCIÓN! Tenemos TODO el material de Club-HD disponible por Mega y Google Drive, enlaces 100% activos y online hasta la fecha

Llévate tus cuentas Mega PRO III gratis con tu membresía VIP!
Todos los posts vivos con links de Mega y Google Drive.
Todo el material de Club-HD desbloqueado y sin publicidad.

Click Aquí para más información.



Para ver este contenido oculto, debes dar click en una de las siguientes reacciones : Like Like, Love Love, Haha Haha, Wow Wow, Sad Sad, Angry Angry

 
Última edición por un moderador:

Mate78

Ladron de mi cerebro
Miembro del Staff
Súper Moderador
Miembro VIP
Registro
27 Ago 2012
Mensajes
1.244

Rep:

BESTIA sos un grosoooo . esperando la 2 !!!! :dplgar:
 

sunker-123

New member
Registro
27 Ago 2012
Mensajes
2.427
Edad
31

Rep:

Muchas Gracias R21, espero que la subas en 720p...:aplausos::sprloc::rzr_::rzr_::rzr_::rzr_:
 

Usuarios Que Están Viendo Este Tema (Total: 1, Miembros: 0, Invitados: 1)

Quién Leyó Este Tema (Total Miembros: 4)

Arriba