Silent Hill: Revelation (2012) 1080p BDRip Dual Latino-Inglés [Subt. Esp-Ing] (Terror. Fantástico)

Maestro Revolver

Well-known member
Miembro del Staff
Administrador
Registro
9 Ago 2012
Mensajes
3.569
Reacciones
59.361
Puntos
113

Reputation:









TÍTULO ORIGINAL: Silent Hill: Revelation 3D (Silent Hill 2)
AÑO: 2012
DURACIÓN: 94 min.
PAÍS: USA
DIRECTOR: Michael J. Bassett
GUIÓN: Michael J. Bassett
REPARTO: Adelaide Clemens, Kit Harington, Sean Bean, Carrie-Anne Moss, Malcolm McDowell, Radha Mitchell, Deborah Kara Unger, Martin Donovan, Heather Marks, James Collins
PRODUCTORA: Coproducción Francia-EEUU; Davis-Films / Sony Pictures / Sony / KONAMI
GÉNERO: Terror. Fantástico | Sobrenatural. Monstruos. Videojuego. 3-D
: http://www.imdb.es/title/tt0938330/






Cuando cumple 18 años, Heather Mason decide buscar a su padre. Las pesadillas que la acechan la conducen a la ciudad de la niebla eterna, donde acabará descubriendo el misterio de Silent Hill. Secuela de la película Silent Hill, basada en una saga de videojuegos homónima.






























La pelicula NO tiene ninguna marca... solo colocamos el nombre de esta web en las capturas






Código:
General
Format                                   : Matroska
Format version                           : Version 2
File size                                : 7.27 GiB
Duration                                 : 1h 34mn
Overall bit rate                         : 11.0 Mbps
Movie name                               : www.club-hd.com
Encoded date                             : UTC 2013-02-07 00:31:56
Writing application                      : mkvmerge v5.7.0 ('The Whirlwind') built on Jul  8 2012 20:08:51
Writing library                          : libebml v1.2.3 + libmatroska v1.3.0

Video
ID                                       : 1
Format                                   : AVC
Format/Info                              : Advanced Video Codec
Format profile                           : High@L4.1
Format settings, CABAC                   : Yes
Format settings, ReFrames                : 5 frames
Codec ID                                 : V_MPEG4/ISO/AVC
Duration                                 : 1h 34mn
Bit rate                                 : 8 391 Kbps
Width                                    : 1 920 pixels
Height                                   : 800 pixels
Display aspect ratio                     : 2.40:1
Frame rate mode                          : Constant
Frame rate                               : 23.976 fps
Color space                              : YUV
Chroma subsampling                       : 4:2:0
Bit depth                                : 8 bits
Scan type                                : Progressive
Bits/(Pixel*Frame)                       : 0.228
Stream size                              : 5.41 GiB (74%)
Title                                    : www.club-hd.com
Writing library                          : x264 core 129 r2245 bc13772
Language                                 : English
Default                                  : Yes
Forced                                   : No

Audio #1
ID                                       : 2
Format                                   : AC-3
Format/Info                              : Audio Coding 3
Mode extension                           : CM (complete main)
Format settings, Endianness              : Big
Codec ID                                 : A_AC3
Duration                                 : 1h 34mn
Bit rate mode                            : Constant
Bit rate                                 : 448 Kbps
Channel(s)                               : 6 channels
Channel positions                        : Front: L C R, Side: L R, LFE
Sampling rate                            : 48.0 KHz
Bit depth                                : 16 bits
Compression mode                         : Lossy
Stream size                              : 304 MiB (4%)
Title                                    : www.club-hd.com  >>  Latino AC3 5.1
Language                                 : Spanish
Default                                  : Yes
Forced                                   : No

Audio #2
ID                                       : 3
Format                                   : AC-3
Format/Info                              : Audio Coding 3
Mode extension                           : CM (complete main)
Format settings, Endianness              : Big
Codec ID                                 : A_AC3
Duration                                 : 1h 34mn
Bit rate mode                            : Constant
Bit rate                                 : 640 Kbps
Channel(s)                               : 6 channels
Channel positions                        : Front: L C R, Side: L R, LFE
Sampling rate                            : 48.0 KHz
Bit depth                                : 16 bits
Compression mode                         : Lossy
Stream size                              : 434 MiB (6%)
Title                                    : www.club-hd.com  >>  Inglés AC3 5.1
Language                                 : English
Default                                  : No
Forced                                   : No

Audio #3
ID                                       : 4
Format                                   : DTS
Format/Info                              : Digital Theater Systems
Mode                                     : 16
Format settings, Endianness              : Big
Codec ID                                 : A_DTS
Duration                                 : 1h 34mn
Bit rate mode                            : Constant
Bit rate                                 : 1 509 Kbps
Channel(s)                               : 6 channels
Channel positions                        : Front: L C R, Side: L R, LFE
Sampling rate                            : 48.0 KHz
Bit depth                                : 24 bits
Compression mode                         : Lossy
Stream size                              : 1 023 MiB (14%)
Title                                    : www.club-hd.com  >>  Inglés DTS 5.1
Language                                 : English
Default                                  : No
Forced                                   : No

Text #1
ID                                       : 5
Format                                   : UTF-8
Codec ID                                 : S_TEXT/UTF8
Codec ID/Info                            : UTF-8 Plain Text
Language                                 : Spanish
Default                                  : No
Forced                                   : No

Text #2
ID                                       : 6
Format                                   : UTF-8
Codec ID                                 : S_TEXT/UTF8
Codec ID/Info                            : UTF-8 Plain Text
Language                                 : English
Default                                  : No
Forced                                   : No

Menu
00:00:00.000                             : en:00:00:00.000
00:04:41.490                             : en:00:04:41.490
00:11:38.531                             : en:00:11:38.531
00:17:09.612                             : en:00:17:09.612
00:21:29.497                             : en:00:21:29.497
00:24:04.485                             : en:00:24:04.485
00:27:59.928                             : en:00:27:59.928
00:31:28.011                             : en:00:31:28.011
00:35:24.080                             : en:00:35:24.080
00:40:50.239                             : en:00:40:50.239
00:46:50.474                             : en:00:46:50.474
00:50:35.282                             : en:00:50:35.282
00:53:56.024                             : en:00:53:56.024
00:57:47.673                             : en:00:57:47.673
01:03:52.829                             : en:01:03:52.829
01:06:30.445                             : en:01:06:30.445
01:11:29.285                             : en:01:11:29.285
01:16:35.299                             : en:01:16:35.299
01:23:00.100                             : en:01:23:00.100
01:27:21.069                             : en:01:27:21.069





Nota: El audio Español Latino fue extraido del dvd (AC3 2.0). El audio dvd fue convertido de 2.0 a 5.1 y agregado a esta pelicula. Se escucha muy bien.
Imagen Aqui











Enlaces de Mega y Fireload solo disponibles para Miembros VIP

Compra tu Membresía VIP y apoya a Club-HD!

ATENCIÓN! Tenemos TODO el material de Club-HD disponible por Mega y Fireload, enlaces 100% activos y online hasta la fecha

Llévate tus cuentas Mega PRO II gratis con tu membresía VIP!
Todos los posts vivos con links de Mega y Fireload.
Todo el material de Club-HD desbloqueado y sin publicidad.

Click Aquí para más información.




Enlaces de Mega y Fireload solo disponibles para Miembros VIP

Compra tu Membresía VIP y apoya a Club-HD!

ATENCIÓN! Tenemos TODO el material de Club-HD disponible por Mega y Fireload, enlaces 100% activos y online hasta la fecha

Llévate tus cuentas Mega PRO II gratis con tu membresía VIP!
Todos los posts vivos con links de Mega y Fireload.
Todo el material de Club-HD desbloqueado y sin publicidad.

Click Aquí para más información.



Para ver este contenido oculto, debes dar click en una de las siguientes reacciones : Like Like, Love Love, Haha Haha, Wow Wow, Sad Sad, Angry Angry

 
Última edición:

arkkangeldark

Well-known member
Registro
27 Ago 2012
Mensajes
3.445
Reacciones
576
Puntos
113
Edad
34
Ubicación
Torreon Coahuila

Reputation:

grande maestro grande como siempre, gracias revolver excelente calidad como siempre, a disfrutarla entonces, saludos
 

Vicure

Well-known member
Registro
27 Ago 2012
Mensajes
1.752
Reacciones
52
Puntos
48

Reputation:

Esperadisima muchas gracias
Descargando
 

Mate78

Ladron de mi cerebro
Miembro del Staff
Súper Moderador
Registro
27 Ago 2012
Mensajes
1.235
Reacciones
918
Puntos
113

Reputation:

Que trabajito te has mandado eheheeh , no me equivoco cuando digo que sos una BESTIA :aplausos: , gracias R21 !!!!!
 

yobas2k1

Member
Registro
27 Ago 2012
Mensajes
31
Reacciones
0
Puntos
6

Reputation:

excelente compa la estaba esperando muchas gracias :dplgar:
 

Sasukefall

New member
Registro
28 Sep 2012
Mensajes
751
Reacciones
42
Puntos
0
Ubicación
Portuguesa

Reputation:

bueno mano muchas gracias, aunque como dije anteriormente yo bajo 2 formato dvdfull (por mi novia tiene su dvd viejito no lo quiere dejar jajaj) y lo baje en audio 5.1 bueno el kmplayer me dice 5.1 ac3 ojala se escuche igual :D suena muy bien, alabado seas mano esperando 720p ante todo gracias!!! esperandooo el 720p me gusta mas calidad 720p que de un dvd xD mi ojos sangran cuando se coloca en la TV plasma jaja
 
Última edición por un moderador:

DoomsDay Elite

Well-known member
Registro
5 Sep 2012
Mensajes
1.225
Reacciones
1.101
Puntos
113

Reputation:

ohhhhhhhh:OHHH::OHHH::OHHH::OHHH::OHHH::OHHH::OHHH::OHHH::OHHH: voy a detener todas mis descargas sola por esta película sos lo máximo la estaba super esperando
 

DoomsDay Elite

Well-known member
Registro
5 Sep 2012
Mensajes
1.225
Reacciones
1.101
Puntos
113

Reputation:

hay que ver no mas la bestialidad de aportes que se están mandando :dplgar:
 

Frafel

Member
Registro
27 Ago 2012
Mensajes
712
Reacciones
9
Puntos
18

Reputation:

Genial Desc_g_ esperaré tambien para la versión 3D :dplgar:
 

RulitoCR

Active member
Registro
28 Ago 2012
Mensajes
513
Reacciones
55
Puntos
28

Reputation:

Al fin al fin!!! Demasiadas gracias!!! Como desde Agosto la espero y en Octubre nunca la estrenaron en mi país (creo que por la poca fama que tiene)!!! Gracias Rsvolver!!
 

Aboguapo

New member
Registro
1 Sep 2012
Mensajes
218
Reacciones
2
Puntos
0

Reputation:

Muchisimas gravias, llevaba tiempo esperando esta peli ;)
 

Usuarios Que Están Viendo Este Tema (Total: 1, Miembros: 0, Invitados: 1)

Arriba