Silent Hill: Revelation (2012) 3D H-SBS 1080p BDRip Dual Latino-Inglés [Subt. Esp-Ing] (Terror. Fantástico)

Maestro Revolver

Administrador
Registro
9 Ago 2012
Mensajes
3.157
Reacciones (ptje)
55.041

url.jpg




FichaTecnica.jpg


TÍTULO ORIGINAL: Silent Hill: Revelation 3D (Silent Hill 2)
AÑO: 2012
DURACIÓN: 94 min.
PAÍS: USA
DIRECTOR: Michael J. Bassett
GUIÓN: Michael J. Bassett
REPARTO: Adelaide Clemens, Kit Harington, Sean Bean, Carrie-Anne Moss, Malcolm McDowell, Radha Mitchell, Deborah Kara Unger, Martin Donovan, Heather Marks, James Collins
PRODUCTORA: Coproducción Francia-EEUU; Davis-Films / Sony Pictures / Sony / KONAMI
GÉNERO: Terror. Fantástico | Sobrenatural. Monstruos. Videojuego. 3-D
imdb-logo.png
: http://www.imdb.es/title/tt0938330/




Sinopsis.jpg


Cuando cumple 18 años, Heather Mason decide buscar a su padre. Las pesadillas que la acechan la conducen a la ciudad de la niebla eterna, donde acabará descubriendo el misterio de Silent Hill. Secuela de la película Silent Hill, basada en una saga de videojuegos homónima.




Trailer.jpg






Capturas.jpg


1.jpg


2.jpg


3.jpg


4.jpg


5.jpg


6.jpg


La pelicula NO tiene ninguna marca... solo colocamos el nombre de esta web en las capturas




MediaInfo.jpg


Código:
General
Format                                   : Matroska
Format version                           : Version 2
File size                                : 10.6 GiB
Duration                                 : 1h 34mn
Overall bit rate                         : 16.1 Mbps
Movie name                               : www.club-hd.com
Encoded date                             : UTC 2013-02-13 23:06:51
Writing application                      : mkvmerge v5.7.0 ('The Whirlwind') built on Jul  8 2012 20:08:51
Writing library                          : libebml v1.2.3 + libmatroska v1.3.0

Video
ID                                       : 1
Format                                   : AVC
Format/Info                              : Advanced Video Codec
Format profile                           : [email protected]
Format settings, CABAC                   : Yes
Format settings, ReFrames                : 2 frames
Codec ID                                 : V_MPEG4/ISO/AVC
Duration                                 : 1h 34mn
Bit rate                                 : 13.1 Mbps
Width                                    : 1 920 pixels
Height                                   : 1 080 pixels
Display aspect ratio                     : 16:9
Frame rate mode                          : Constant
Frame rate                               : 23.976 fps
Color space                              : YUV
Chroma subsampling                       : 4:2:0
Bit depth                                : 8 bits
Scan type                                : Progressive
Bits/(Pixel*Frame)                       : 0.264
Stream size                              : 8.70 GiB (82%)
Title                                    : www.club-hd.com
Writing library                          : x264 core
Language                                 : English
Default                                  : Yes
Forced                                   : No
Color primaries                          : BT.709
Transfer characteristics                 : BT.709
Matrix coefficients                      : BT.709

Audio #1
ID                                       : 2
Format                                   : AC-3
Format/Info                              : Audio Coding 3
Mode extension                           : CM (complete main)
Format settings, Endianness              : Big
Codec ID                                 : A_AC3
Duration                                 : 1h 34mn
Bit rate mode                            : Constant
Bit rate                                 : 448 Kbps
Channel(s)                               : 6 channels
Channel positions                        : Front: L C R, Side: L R, LFE
Sampling rate                            : 48.0 KHz
Bit depth                                : 16 bits
Compression mode                         : Lossy
Delay relative to video                  : 24ms
Stream size                              : 303 MiB (3%)
Title                                    : www.club-hd.com  >>  Latino AC3 5.1
Language                                 : Spanish
Default                                  : Yes
Forced                                   : No

Audio #2
ID                                       : 3
Format                                   : AC-3
Format/Info                              : Audio Coding 3
Mode extension                           : CM (complete main)
Format settings, Endianness              : Big
Codec ID                                 : A_AC3
Duration                                 : 1h 34mn
Bit rate mode                            : Constant
Bit rate                                 : 640 Kbps
Channel(s)                               : 6 channels
Channel positions                        : Front: L C R, Side: L R, LFE
Sampling rate                            : 48.0 KHz
Bit depth                                : 16 bits
Compression mode                         : Lossy
Stream size                              : 434 MiB (4%)
Title                                    : www.club-hd.com  >>  Inglés AC3 5.1
Language                                 : English
Default                                  : No
Forced                                   : No

Audio #3
ID                                       : 4
Format                                   : DTS
Format/Info                              : Digital Theater Systems
Mode                                     : 16
Format settings, Endianness              : Big
Codec ID                                 : A_DTS
Duration                                 : 1h 34mn
Bit rate mode                            : Constant
Bit rate                                 : 1 509 Kbps
Channel(s)                               : 6 channels
Channel positions                        : Front: L C R, Side: L R, LFE
Sampling rate                            : 48.0 KHz
Bit depth                                : 24 bits
Compression mode                         : Lossy
Stream size                              : 1 022 MiB (9%)
Title                                    : www.club-hd.com  >>  Inglés DTS 5.1
Language                                 : English
Default                                  : No
Forced                                   : No

Text #1
ID                                       : 5
Format                                   : UTF-8
Codec ID                                 : S_TEXT/UTF8
Codec ID/Info                            : UTF-8 Plain Text
Language                                 : Spanish
Default                                  : No
Forced                                   : No

Text #2
ID                                       : 6
Format                                   : UTF-8
Codec ID                                 : S_TEXT/UTF8
Codec ID/Info                            : UTF-8 Plain Text
Language                                 : English
Default                                  : No
Forced                                   : No

Menu
00:00:00.000                             : en:00:00:00.000
00:04:40.489                             : en:00:04:40.489
00:11:37.530                             : en:00:11:37.530
00:17:08.611                             : en:00:17:08.611
00:21:28.496                             : en:00:21:28.496
00:24:03.484                             : en:00:24:03.484
00:27:58.927                             : en:00:27:58.927
00:31:27.010                             : en:00:31:27.010
00:35:23.079                             : en:00:35:23.079
00:40:49.113                             : en:00:40:49.113
00:46:49.473                             : en:00:46:49.473
00:50:34.281                             : en:00:50:34.281
00:53:55.023                             : en:00:53:55.023
00:57:46.672                             : en:00:57:46.672
01:03:51.828                             : en:01:03:51.828
01:06:29.444                             : en:01:06:29.444
01:11:28.284                             : en:01:11:28.284
01:16:34.298                             : en:01:16:34.298
01:22:59.099                             : en:01:22:59.099
01:27:20.068                             : en:01:27:20.068





Nota: El audio Español Latino fue extraido del dvd (AC3 2.0). El audio dvd fue convertido de 2.0 a 5.1 y agregado a esta pelicula. Se escucha muy bien.





Descarga.jpg



MEGA.jpg

Tenemos TODO el material de Club-HD disponible por Mega, enlaces 100% activos y online hasta la fecha

Llévate tus cuentas Mega PRO III gratis con tu membresía VIP!
Todos los posts vivos con links de Mega.
Todo el material de Club-HD desbloqueado y sin publicidad.

Obtén más información sobre nuestras Membresías VIP



UPLOADED_BANNER.png

Para ver este contenido oculto, debes dar click en el botón"Like", o cualquiera de las otras reacciones:

Me Gusta Me Gusta, Me Encanta Me Encanta, Jaja Jaja, Wow Wow, Triste Triste, Molesto Molesto
 
Última edición por un moderador:
:OHHH: :OHHH: :OHHH:

j4wdrop2 j4wdrop2 j4wdrop2

No alcanzo a vermela en 2D y tu ya la preparaste y subiste en 3D, eres el mejor, Bendiciones para ti por tu gran labor que nos llena el orgullo y los discos :D por pertenecer a esta gran comunidad, Larga Vida a Club-HD !!!:thank-you:

Muchas, Muchas, Muchas, Muchas, Muchas, Muchas Gracias por tan excelentes Aportes !!!

:thank-you:
 
Gracias por el aporte, pero en lo personal esperare a que salga a la venta el Blu Ray 3D ;)
Como tu quieras amigo, este es un mundo libre.
En lo personal, me basta y me sobra con esta super calidad, que los Masters nos brindan.:aplausos::aplausos::aplausos::dplgar:

Saludos!!!
 
Última edición:
Muchas Gracias por este super aporte en 3D.:aplausos::aplausos::aplausos:

Gracias Monstruo R21!!!!!:aplausos::LXR::LXR:
 
perro se pasó. la estaba esperando en este formato. gracias
 
Volver