Silent Night (2012) m-720p Audio Inglés [Subt. Esp] (Terror)

Maestro Revolver

Administrador
Registro
9 Ago 2012
Mensajes
3.157
Reacciones (ptje)
55.034


Silent-Night.jpg




FICHA_TECNICA.png


TÍTULO ORIGINAL: Silent Night
AÑO: 2012
DURACIÓN: 94 min.
PAÍS: Canadá
DIRECTOR: Steven C. Miller
GUIÓN: Jayson Rothwell
REPARTO: Malcolm McDowell, Jaime King, Donal Logue, Ellen Wong, Brendan Fehr
PRODUCTORA: Coproducción Canadá-EEUU; The Genre Co. / Buffalo Gal Pictures / The Ember Productions
GÉNERO: Terror | Navidad. Remake
imdb-logo.png
: http://www.imdb.com/title/tt2347497/




SINOPSIS.png


Remake del film de terror de la década de los ochenta, ‘Noche de Paz, Noche de Muerte’. Un maníaco disfrazado de Santa Claus consigue aterrorizar a los habitantes de un pequeño pueblo americano. Este terrorífico Santa Claus, traumatizado por presenciar el asesinato de sus padres cuando todavía era un niño, se dedicará a asesinar todo aquello que se le cruce por delante sin piedad alguna.




TRAILER.png






CAPTURAS.png


1.jpg


2.jpg


3.jpg


4.jpg


5.jpg


6.jpg


La pelicula NO tiene ninguna marca... solo colocamos el nombre de esta web en las capturas




DATOS_TECNICOS.png


Código:
General
Format                                   : Matroska
Format version                           : Version 2
File size                                : 2.00 GiB
Duration                                 : 1h 33mn
Overall bit rate                         : 3 061 Kbps
Movie name                               : www.club-hd.com
Encoded date                             : UTC 2012-12-06 00:10:24
Writing application                      : mkvmerge v5.7.0 ('The Whirlwind') built on Jul  8 2012 20:08:51
Writing library                          : libebml v1.2.3 + libmatroska v1.3.0

Video
ID                                       : 1
Format                                   : AVC
Format/Info                              : Advanced Video Codec
Format profile                           : [email protected]
Format settings, CABAC                   : Yes
Format settings, ReFrames                : 9 frames
Codec ID                                 : V_MPEG4/ISO/AVC
Duration                                 : 1h 33mn
Bit rate                                 : 2 611 Kbps
Width                                    : 1 280 pixels
Height                                   : 534 pixels
Display aspect ratio                     : 2.40:1
Frame rate mode                          : Constant
Frame rate                               : 23.976 fps
Color space                              : YUV
Chroma subsampling                       : 4:2:0
Bit depth                                : 8 bits
Scan type                                : Progressive
Bits/(Pixel*Frame)                       : 0.159
Stream size                              : 1.67 GiB (83%)
Title                                    : www.club-hd.com
Writing library                          : x264 core 129 r2230 1cffe9f
Language                                 : English
Default                                  : Yes
Forced                                   : No

Audio
ID                                       : 2
Format                                   : AC-3
Format/Info                              : Audio Coding 3
Mode extension                           : CM (complete main)
Format settings, Endianness              : Big
Codec ID                                 : A_AC3
Duration                                 : 1h 33mn
Bit rate mode                            : Constant
Bit rate                                 : 448 Kbps
Channel(s)                               : 6 channels
Channel positions                        : Front: L C R, Side: L R, LFE
Sampling rate                            : 48.0 KHz
Bit depth                                : 16 bits
Compression mode                         : Lossy
Stream size                              : 300 MiB (15%)
Title                                    : www.club-hd.com
Language                                 : English
Default                                  : Yes
Forced                                   : No

Text
ID                                       : 3
Format                                   : UTF-8
Codec ID                                 : S_TEXT/UTF8
Codec ID/Info                            : UTF-8 Plain Text
Language                                 : Spanish
Default                                  : Yes
Forced                                   : No




Sin Contraseña | Simple Extracción




Descarga.png

Links Intercambiables



google-drive-vip.png


Tenemos TODO el material de Club-HD disponible por Mega, enlaces 100% activos y online hasta la fecha

Llévate tus cuentas Mega PRO III gratis con tu membresía VIP!
Todos los posts vivos con links de Mega.
Todo el material de Club-HD desbloqueado y sin publicidad.

Obtén más información sobre nuestras Membresías VIP




MEGA.jpg

Tenemos TODO el material de Club-HD disponible por Mega, enlaces 100% activos y online hasta la fecha

Llévate tus cuentas Mega PRO III gratis con tu membresía VIP!
Todos los posts vivos con links de Mega.
Todo el material de Club-HD desbloqueado y sin publicidad.

Obtén más información sobre nuestras Membresías VIP


UPLOADED.TO_BANNER.png

Para ver este contenido oculto, debes dar click en el botón"Like", o cualquiera de las otras reacciones:

Me Gusta Me Gusta, Me Encanta Me Encanta, Jaja Jaja, Wow Wow, Triste Triste, Molesto Molesto
 
Última edición por un moderador:
Para estas fechas perfecto maestro se ve buena

garcias :D
 
perfecto me pregunto si saldra en dual, mmmm me la descargo gracias maestro
 
Malcolm McDowell!?!?!?! No será demasiado actor para ésta peli? Me la bajo pero YA! Muy buen aporte!
 
Me la bajo yo también.

Gracias jefe maestro revolver!

Saludos! victory
 
excelente para ver otras peliculas en esta navidad siempre uno ve las mismas mi pobre angelito 1 2 3
 
Volver