Slash Featuring Myles Kennedy Live - Made in Stoke (2011) m-1080p BDRip [AC3 - DTS 5.1] (Concierto)

Maestro Revolver

Well-known member
Miembro del Staff
Administrador
Registro
9 Ago 2012
Mensajes
3.567








Grabado en el Victoria Hall en Stoke On Trent el 24 de julio, este concierto marcó el regreso de Slash a la ciudad en la que creció. El espectáculo se produjo al término de su gira 2010/11 mundial de su álbum debut como solista 'Slash'. La voz principal durante la gira recayó en Myles Kennedy de Alter Bridge y la lista de canciones incluyó temas de su álbum en solitario, de sus álbumes con Slash's Snakepit, Velvet Revolver y las canciones clásicas que él co-escribió para Guns'n'Roses.



Track List:

01. Been There Lately
02. Nightrain
03. Ghost
04. Mean Bone
05. Back From Cali
06. Rocket Queen
07. Civil War
08. Nothing To Say
09. Starlight
10. Promise
11. Doctor Alibi
12. Speed Parade
13. Watch This
14. Beggars & Hangers-On
15. Patience
16. Guitar Solo / Godfather Theme
17. Sweet Child O' Mine
18. Slither
19. By The Sword
20. Mr. Brownstone
21. Paradise City





























Código:
General
Format                                   : Matroska
Format version                           : Version 2
File size                                : 5.86 GiB
Duration                                 : 2h 5mn
Overall bit rate                         : 6 681 Kbps
Movie name                               : www.club-hd.com
Encoded date                             : UTC 2013-06-15 19:38:13
Writing application                      : mkvmerge v5.7.0 ('The Whirlwind') built on Jul  8 2012 20:08:51
Writing library                          : libebml v1.2.3 + libmatroska v1.3.0

Video
ID                                       : 1
Format                                   : AVC
Format/Info                              : Advanced Video Codec
Format profile                           : High@L4.1
Format settings, CABAC                   : Yes
Format settings, ReFrames                : 3 frames
Codec ID                                 : V_MPEG4/ISO/AVC
Duration                                 : 2h 5mn
Bit rate                                 : 4 500 Kbps
Width                                    : 1 920 pixels
Height                                   : 1 072 pixels
Display aspect ratio                     : 16:9
Frame rate mode                          : Constant
Frame rate                               : 29.970 fps
Color space                              : YUV
Chroma subsampling                       : 4:2:0
Bit depth                                : 8 bits
Scan type                                : Progressive
Bits/(Pixel*Frame)                       : 0.073
Stream size                              : 3.86 GiB (66%)
Title                                    : www.club-hd.com
Writing library                          : x264 core 120
Language                                 : English
Default                                  : Yes
Forced                                   : No
Color primaries                          : BT.709
Transfer characteristics                 : BT.709
Matrix coefficients                      : BT.709

Audio #1
ID                                       : 2
Format                                   : AC-3
Format/Info                              : Audio Coding 3
Mode extension                           : CM (complete main)
Format settings, Endianness              : Big
Codec ID                                 : A_AC3
Duration                                 : 2h 5mn
Bit rate mode                            : Constant
Bit rate                                 : 640 Kbps
Channel(s)                               : 6 channels
Channel positions                        : Front: L C R, Side: L R, LFE
Sampling rate                            : 48.0 KHz
Bit depth                                : 16 bits
Compression mode                         : Lossy
Stream size                              : 575 MiB (10%)
Title                                    : AC3 - 640 Kbps
Language                                 : English
Default                                  : Yes
Forced                                   : No

Audio #2
ID                                       : 3
Format                                   : DTS
Format/Info                              : Digital Theater Systems
Mode                                     : 16
Format settings, Endianness              : Big
Codec ID                                 : A_DTS
Duration                                 : 2h 5mn
Bit rate mode                            : Constant
Bit rate                                 : 1 509 Kbps
Channel(s)                               : 6 channels
Channel positions                        : Front: L C R, Side: L R, LFE
Sampling rate                            : 48.0 KHz
Bit depth                                : 16 bits
Compression mode                         : Lossy
Stream size                              : 1.32 GiB (23%)
Title                                    : DTS - 1 509 Kbps
Language                                 : English
Default                                  : No
Forced                                   : No








Enlaces de Mega y Google Drive solo disponibles para Miembros VIP

Compra tu Membresía VIP y apoya a Club-HD!

ATENCIÓN! Tenemos TODO el material de Club-HD disponible por Mega y Google Drive, enlaces 100% activos y online hasta la fecha

Llévate tus cuentas Mega PRO III gratis con tu membresía VIP!
Todos los posts vivos con links de Mega y Google Drive.
Todo el material de Club-HD desbloqueado y sin publicidad.

Click Aquí para más información.



Para ver este contenido oculto, debes dar click en una de las siguientes reacciones : Like Like, Love Love, Haha Haha, Wow Wow, Sad Sad, Angry Angry
 
Última edición por un moderador:

Mate78

Ladron de mi cerebro
Miembro del Staff
Súper Moderador
Miembro VIP
Registro
27 Ago 2012
Mensajes
1.244
Guns n`roses , B4ND4 SLASH el unico sobreviviente , gracias por este lindo concierto , otro mas pa la coleccion !!!!! R22 :aplausos:_ok:pgarb:LXR_2
 

HemoAr

Dohko de Libra
Administrador
Uploader
Miembro VIP
Registro
9 Mar 2013
Mensajes
10.597
Ubicación
Rozan
Excelente Revo Gracias R0ckinR0ckinR0ckinR0ckin
 

Usuarios Que Están Viendo Este Tema (Total: 1, Miembros: 0, Invitados: 1)

Quién Leyó Este Tema (Total Miembros: 1)

Arriba