Snitch (2013) m-720p Audio Inglés [Subt. Esp] (Acción. Thriller)

Maestro Revolver

Well-known member
Miembro del Staff
Administrador
Registro
9 Ago 2012
Mensajes
3.567








TÍTULO ORIGINAL: Snitch
AÑO: 2013
DURACIÓN: 112 min.
PAÍS: USA
DIRECTOR: Ric Roman Waugh
GUIÓN: Ric Roman Waugh, Justin Haythe
REPARTO: Dwayne "The Rock" Johnson, Jon Bernthal, Susan Sarandon, Nadine Velazquez, Harold Perrineau, Michael Kenneth Williams, JD Pardo, Barry Pepper, Benjamin Bratt, Kym Jackson
PRODUCTORA: Exclusive Media Group / Imagenation Abu Dhabi FZ / Participant Media
GÉNERO: Acción. Thriller. Drama | Basado en hechos reales
: http://www.imdb.com/title/tt0882977/






Un padre (Johnson) recibe un duro golpe cuando condenan a su hijo adolescente a a una pena de treinta años de cárcel por un delito relacionado con el narcotráfico. Para conseguir que reduzcan su condena, intenta ponerse en contacto con un importante traficante.
























La pelicula NO tiene ninguna marca... solo colocamos el nombre de esta web en las capturas






Código:
General
Format                                   : Matroska
Format version                           : Version 2
File size                                : 2.50 GiB
Duration                                 : 1h 51mn
Overall bit rate                         : 3 201 Kbps
Movie name                               : www.club-hd.com
Encoded date                             : UTC 2013-05-22 22:06:43
Writing application                      : mkvmerge v5.7.0 ('The Whirlwind') built on Jul  8 2012 20:08:51
Writing library                          : libebml v1.2.3 + libmatroska v1.3.0

Video
ID                                       : 1
Format                                   : AVC
Format/Info                              : Advanced Video Codec
Format profile                           : High@L4.1
Format settings, CABAC                   : Yes
Format settings, ReFrames                : 9 frames
Codec ID                                 : V_MPEG4/ISO/AVC
Duration                                 : 1h 51mn
Bit rate                                 : 2 753 Kbps
Width                                    : 1 280 pixels
Height                                   : 534 pixels
Display aspect ratio                     : 2.40:1
Frame rate mode                          : Constant
Frame rate                               : 23.976 fps
Color space                              : YUV
Chroma subsampling                       : 4:2:0
Bit depth                                : 8 bits
Scan type                                : Progressive
Bits/(Pixel*Frame)                       : 0.168
Stream size                              : 2.10 GiB (84%)
Writing library                          : x264 core 130 r2273 b3065e6
Language                                 : English
Default                                  : Yes
Forced                                   : No

Audio
ID                                       : 2
Format                                   : AC-3
Format/Info                              : Audio Coding 3
Mode extension                           : CM (complete main)
Format settings, Endianness              : Big
Codec ID                                 : A_AC3
Duration                                 : 1h 51mn
Bit rate mode                            : Constant
Bit rate                                 : 448 Kbps
Channel(s)                               : 6 channels
Channel positions                        : Front: L C R, Side: L R, LFE
Sampling rate                            : 48.0 KHz
Bit depth                                : 16 bits
Compression mode                         : Lossy
Stream size                              : 359 MiB (14%)
Language                                 : English
Default                                  : Yes
Forced                                   : No

Text
ID                                       : 3
Format                                   : UTF-8
Codec ID                                 : S_TEXT/UTF8
Codec ID/Info                            : UTF-8 Plain Text
Language                                 : Spanish
Default                                  : Yes
Forced                                   : No

Menu
00:00:00.000                             : en:Chapter 1
00:06:18.086                             : en:Chapter 2
00:14:02.717                             : en:Chapter 3
00:21:29.747                             : en:Chapter 4
00:29:44.700                             : en:Chapter 5
00:34:28.984                             : en:Chapter 6
00:42:36.179                             : en:Chapter 7
00:49:18.831                             : en:Chapter 8
00:56:31.638                             : en:Chapter 9
01:00:53.108                             : en:Chapter 10
01:10:01.572                             : en:Chapter 11
01:18:55.272                             : en:Chapter 12
01:24:05.374                             : en:Chapter 13
01:31:21.559                             : en:Chapter 14
01:38:40.540                             : en:Chapter 15
01:45:56.600                             : en:Chapter 16








Enlaces de Mega y Google Drive solo disponibles para Miembros VIP

Compra tu Membresía VIP y apoya a Club-HD!

ATENCIÓN! Tenemos TODO el material de Club-HD disponible por Mega y Google Drive, enlaces 100% activos y online hasta la fecha

Llévate tus cuentas Mega PRO III gratis con tu membresía VIP!
Todos los posts vivos con links de Mega y Google Drive.
Todo el material de Club-HD desbloqueado y sin publicidad.

Click Aquí para más información.


Para ver este contenido oculto, debes dar click en una de las siguientes reacciones : Like Like, Love Love, Haha Haha, Wow Wow, Sad Sad, Angry Angry



 
Última edición por un moderador:

Usuarios Que Están Viendo Este Tema (Total: 1, Miembros: 0, Invitados: 1)

Quién Leyó Este Tema (Total Miembros: 2)

Arriba