Speed (1994) 720p BDRip Dual Latino-Inglés [Subt. Esp] (Acción)

Maestro Revolver

Administrador
Registro
9 Ago 2012
Mensajes
3.157
Reacciones (ptje)
54.925


Speed.jpg





FichaTecnica.jpg


TÍTULO ORIGINAL: Speed
AÑO: 1994
DURACIÓN: 115 min.
PAÍS: USA
DIRECTOR: Jan de Bont
GUIÓN: Graham Yost
REPARTO: Keanu Reeves, Sandra Bullock, Dennis Hopper, Joe Morton, Jeff Daniels, Alan Ruck, Glenn Plummer, Richard Lineback, Beth Grant, Hawthorne James
PRODUCTORA: 20th Century Fox
GÉNERO: Acción
imdb-logo.png
: http://www.imdb.com/title/tt0111257/

PREMIOS: 1994: 2 Oscars: Mejor sonido, efectos de sonido. 3 nominaciones
1994: 2 premios BAFTA: Mejor montaje y sonido. Nominada a mejores efectos especiales




Sinopsis.jpg


Jack Traven (Reeves) es un intrépido policía de Los Angeles. La supervivencia en esta ciudad para un agente de la ley no es tarea fácil, pero Jack, además de disfrutar de una proverbial buena suerte, conoce perfectamente los trucos para sortear el peligro. Sin embargo, tendrá que afrontar una dura prueba cuando queda atrapado en un autobús urbano que lleva instalada una bomba programada para explotar si el vehículo disminuye su velocidad a menos de 80 kilómetros por hora. Empieza así una loca carrera por la ciudad, con Jack intentando dar confianza a la joven pasajera (Bullock) que ha sustituido al conductor, herido en el "secuestro".




Trailer.jpg






Capturas.jpg


1.jpg


2.jpg


3.jpg


4.jpg


5.jpg


6.jpg


La pelicula NO tiene ninguna marca... solo colocamos el nombre de esta web en las capturas




MediaInfo.jpg


Código:
General
Format                                   : Matroska
Format version                           : Version 2
File size                                : 3.11 GiB
Duration                                 : 1h 55mn
Overall bit rate                         : 3 839 Kbps
Movie name                               : www.club-hd.com
Encoded date                             : UTC 2014-03-16 20:44:55
Writing application                      : mkvmerge v5.7.0 ('The Whirlwind') built on Jul  8 2012 20:08:51
Writing library                          : libebml v1.2.3 + libmatroska v1.3.0

Video
ID                                       : 1
Format                                   : AVC
Format/Info                              : Advanced Video Codec
Format profile                           : [email protected]
Format settings, CABAC                   : Yes
Format settings, ReFrames                : 6 frames
Muxing mode                              : Header stripping
Codec ID                                 : V_MPEG4/ISO/AVC
Duration                                 : 1h 55mn
Bit rate                                 : 2 675 Kbps
Width                                    : 1 280 pixels
Height                                   : 544 pixels
Display aspect ratio                     : 2.35:1
Frame rate mode                          : Constant
Frame rate                               : 23.976 fps
Color space                              : YUV
Chroma subsampling                       : 4:2:0
Bit depth                                : 8 bits
Scan type                                : Progressive
Bits/(Pixel*Frame)                       : 0.160
Stream size                              : 2.17 GiB (70%)
Title                                    : www.club-hd.com
Writing library                          : x264 core 138 r2358 9e941d1
Language                                 : English
Default                                  : Yes
Forced                                   : No
Color primaries                          : BT.709
Transfer characteristics                 : BT.709
Matrix coefficients                      : BT.709

Audio #1
ID                                       : 2
Format                                   : AC-3
Format/Info                              : Audio Coding 3
Mode extension                           : CM (complete main)
Format settings, Endianness              : Big
Muxing mode                              : Header stripping
Codec ID                                 : A_AC3
Duration                                 : 1h 55mn
Bit rate mode                            : Constant
Bit rate                                 : 448 Kbps
Channel(s)                               : 6 channels
Channel positions                        : Front: L C R, Side: L R, LFE
Sampling rate                            : 48.0 KHz
Bit depth                                : 16 bits
Compression mode                         : Lossy
Delay relative to video                  : 1s 0ms
Stream size                              : 371 MiB (12%)
Title                                    : www.club-hd.com  >>  Latino
Language                                 : Spanish
Default                                  : Yes
Forced                                   : No

Audio #2
ID                                       : 3
Format                                   : AC-3
Format/Info                              : Audio Coding 3
Mode extension                           : CM (complete main)
Format settings, Endianness              : Big
Muxing mode                              : Header stripping
Codec ID                                 : A_AC3
Duration                                 : 1h 55mn
Bit rate mode                            : Constant
Bit rate                                 : 640 Kbps
Channel(s)                               : 6 channels
Channel positions                        : Front: L C R, Side: L R, LFE
Sampling rate                            : 48.0 KHz
Bit depth                                : 16 bits
Compression mode                         : Lossy
Stream size                              : 531 MiB (17%)
Title                                    : www.club-hd.com  >>  Inglés
Language                                 : English
Default                                  : No
Forced                                   : No

Text
ID                                       : 4
Format                                   : UTF-8
Codec ID                                 : S_TEXT/UTF8
Codec ID/Info                            : UTF-8 Plain Text
Language                                 : Spanish
Default                                  : No
Forced                                   : No

Menu
00:00:00.000                             : en:00:00:00.000
00:04:19.551                             : en:00:04:19.551
00:06:04.281                             : en:00:06:04.281
00:08:27.090                             : en:00:08:27.090
00:11:17.886                             : en:00:11:17.886
00:15:23.714                             : en:00:15:23.714
00:17:38.224                             : en:00:17:38.224
00:23:21.817                             : en:00:23:21.817
00:26:43.769                             : en:00:26:43.769
00:31:01.777                             : en:00:31:01.777
00:35:05.520                             : en:00:35:05.520
00:40:23.588                             : en:00:40:23.588
00:44:32.753                             : en:00:44:32.753
00:48:46.507                             : en:00:48:46.507
00:53:09.186                             : en:00:53:09.186
00:55:44.216                             : en:00:55:44.216
00:58:51.820                             : en:00:58:51.820
01:02:19.444                             : en:01:02:19.444
01:07:38.388                             : en:01:07:38.388
01:08:54.547                             : en:01:08:54.547
01:11:51.516                             : en:01:11:51.516
01:15:16.846                             : en:01:15:16.846
01:15:40.536                             : en:01:15:40.536
01:19:33.519                             : en:01:19:33.519
01:23:27.586                             : en:01:23:27.586
01:27:04.636                             : en:01:27:04.636
01:32:57.197                             : en:01:32:57.197
01:37:06.029                             : en:01:37:06.029
01:40:28.231                             : en:01:40:28.231
01:42:19.884                             : en:01:42:19.884
01:46:05.776                             : en:01:46:05.776
01:50:06.266                             : en:01:50:06.266










Descarga.jpg



MEGA.jpg

Tenemos TODO el material de Club-HD disponible por Mega, enlaces 100% activos y online hasta la fecha

Llévate tus cuentas Mega PRO III gratis con tu membresía VIP!
Todos los posts vivos con links de Mega.
Todo el material de Club-HD desbloqueado y sin publicidad.

Obtén más información sobre nuestras Membresías VIP



1FICHIER-BANNER.png


Tenemos TODO el material de Club-HD disponible por Mega, enlaces 100% activos y online hasta la fecha

Llévate tus cuentas Mega PRO III gratis con tu membresía VIP!
Todos los posts vivos con links de Mega.
Todo el material de Club-HD desbloqueado y sin publicidad.

Obtén más información sobre nuestras Membresías VIP


up.jpg


Para ver este contenido oculto, debes dar click en el botón"Like", o cualquiera de las otras reacciones:

Me Gusta Me Gusta, Me Encanta Me Encanta, Jaja Jaja, Wow Wow, Triste Triste, Molesto Molesto

OPENLOAD.png


Para ver este contenido oculto, debes dar click en el botón"Like", o cualquiera de las otras reacciones:

Me Gusta Me Gusta, Me Encanta Me Encanta, Jaja Jaja, Wow Wow, Triste Triste, Molesto Molesto
 
Última edición por un moderador:
Muchas Gracias Revo!!!


Si que buena película y que buen tema, siempre que nombran la peli salgo cantando el tema: speed speed!!!H_b4nger:D

Billy Idol - Speed:


Sebastian - Movidito:


Ayyyy....no se con cual quedarmeeee!!!.......los 2 a la final y listo!!!! :D:aplausos:


Cosas del Doctor:

Para mi el cantante de cuarteto "Sebastian" es el "Billy Idol" Argentino, ustedes que dicen....estoy crazy, Macaya?

sebastian.jpg

Billy-Idol.jpg
 
Última edición:
Volver