Star Trek (2009) 1080p BDRip Dual Latino-Inglés [Subt. Esp] (Ciencia ficción. Aventura)

Maestro Revolver

Administrador
Registro
9 Ago 2012
Mensajes
3.157
Reacciones (ptje)
55.165


Star-Trek-1080p.jpg




FichaTecnica.jpg


TÍTULO ORIGINAL: Star Trek (Star Trek XI)
AÑO: 2009
DURACIÓN: 126 min.
PAÍS: USA
DIRECTOR: J.J. Abrams
GUIÓN: Alex Kurtzman, Roberto Orci (Personajes: Gene Roddenberry)
REPARTO: Chris Pine, Zachary Quinto, Zoe Saldana, Eric Bana, Simon Pegg, Karl Urban, Bruce Greenwood, Anton Yelchin, John Cho, Leonard Nimoy, Winona Ryder, Ben Cross, Chris Hemsworth, Jennifer Morrison, Rachel Nichols, Jimmy Bennett, Faran Tahir, Clifton Collins Jr., Tyler Perry
PRODUCTORA: Bad Robot / Spyglass Entertainment / Paramount Pictures
GÉNERO: Ciencia ficción. Aventuras. Fantástico. Acción | Remake. Aventura espacial. Viajes en el tiempo. Star Trek
imdb-logo.png
: http://www.imdb.com/title/tt0796366/

Premios: 2009: Oscar: Mejor maquillaje. 4 nominaciones
2009: 2 nominaciones a los Premios BAFTA: Mejor sonido y efectos especiales visuales
2009: 5 nominaciones Critics' Choice Awards, incluyendo mejor película de acción y reparto




Sinopsis.jpg


En esta entrega de la mítica saga de Star Trek, dirigida por el creador de la serie "Perdidos" (Lost), se cuenta cómo se conocieron el capitan Kirk y Spock. Todo está preparado para el viaje inaugural de la nave más moderna que jamás se haya creado: la USS Enterprise. Su joven tripulación tiene una importante misión: encontrar una manera de detener al malvado Nero (Eric Bana), que movido por la venganza amenaza a toda la humanidad. Pero el destino de la galaxia está en manos de dos jóvenes rivales que nacieron en mundos diferentes. Uno de ellos, Tiberio James Kirk (Chris Pine), joven de una granja de Iowa que busca emociones, es un líder nato a la búsqueda de una causa. El otro, Spock (Zachary Quinto), que creció en el planeta Vulcano, es un paria debido a su parte medio humana, lo que lo hace susceptible a la inestabilidad de las emociones de los Vulcanos. Pero Spock es también un brillante y decidido estudiante. La tripulación de la USS está liderada por el Capitán Christopher Pike (Bruce Greenwood). También están el Oficial Médico, Leonard "Bones" McCoy (Karl Urban); el hombre que pasará a ser el ingeniero jefe del buque, Montgomery "Scotty" Scott (Simon Pegg); el oficial de comunicaciones Uhura (Zoë Saldaña); el experimentado Timonel Sulu (John Cho) y el joven de 17 Chekov (Anton Yelchin). Todos se enfrentan a un angustioso primer ensayo.




Trailer.jpg






Capturas.jpg


1.jpg


2.jpg


3.jpg


4.jpg


5.jpg


6.jpg


7.jpg


8.jpg


9.jpg


10.jpg


11.jpg


12.jpg


13.jpg


La pelicula NO tiene ninguna marca... solo colocamos el nombre de esta web en las capturas




MediaInfo.jpg


Código:
General
Format                                   : Matroska
Format version                           : Version 2
File size                                : 14.1 GiB
Duration                                 : 2h 6mn
Overall bit rate                         : 15.9 Mbps
Movie name                               : www.club-hd.com
Encoded date                             : UTC 2013-08-05 23:27:46
Writing application                      : mkvmerge v5.7.0 ('The Whirlwind') built on Jul  8 2012 20:08:51
Writing library                          : libebml v1.2.3 + libmatroska v1.3.0

Video
ID                                       : 1
Format                                   : AVC
Format/Info                              : Advanced Video Codec
Format profile                           : [email protected]
Format settings, CABAC                   : Yes
Format settings, ReFrames                : 5 frames
Codec ID                                 : V_MPEG4/ISO/AVC
Duration                                 : 2h 6mn
Bit rate                                 : 13.3 Mbps
Width                                    : 1 920 pixels
Height                                   : 800 pixels
Display aspect ratio                     : 2.40:1
Frame rate mode                          : Constant
Frame rate                               : 23.976 fps
Color space                              : YUV
Chroma subsampling                       : 4:2:0
Bit depth                                : 8 bits
Scan type                                : Progressive
Bits/(Pixel*Frame)                       : 0.361
Stream size                              : 11.5 GiB (82%)
Title                                    : www.club-hd.com
Writing library                          : x264 core 68 r1183M f21daff
Language                                 : English
Default                                  : Yes
Forced                                   : No

Audio #1
ID                                       : 2
Format                                   : AC-3
Format/Info                              : Audio Coding 3
Mode extension                           : CM (complete main)
Format settings, Endianness              : Big
Codec ID                                 : A_AC3
Duration                                 : 2h 6mn
Bit rate mode                            : Constant
Bit rate                                 : 448 Kbps
Channel(s)                               : 6 channels
Channel positions                        : Front: L C R, Side: L R, LFE
Sampling rate                            : 48.0 KHz
Bit depth                                : 16 bits
Compression mode                         : Lossy
Stream size                              : 406 MiB (3%)
Title                                    : www.club-hd.com  >>  Latino AC3 5.1
Language                                 : Spanish
Default                                  : Yes
Forced                                   : No

Audio #2
ID                                       : 3
Format                                   : AC-3
Format/Info                              : Audio Coding 3
Mode extension                           : CM (complete main)
Format settings, Endianness              : Big
Codec ID                                 : A_AC3
Duration                                 : 2h 6mn
Bit rate mode                            : Constant
Bit rate                                 : 640 Kbps
Channel(s)                               : 6 channels
Channel positions                        : Front: L C R, Side: L R, LFE
Sampling rate                            : 48.0 KHz
Bit depth                                : 16 bits
Compression mode                         : Lossy
Stream size                              : 581 MiB (4%)
Title                                    : www.club-hd.com  >>  Inglés AC3 5.1
Language                                 : English
Default                                  : No
Forced                                   : No

Audio #3
ID                                       : 4
Format                                   : DTS
Format/Info                              : Digital Theater Systems
Mode                                     : 16
Format settings, Endianness              : Big
Codec ID                                 : A_DTS
Duration                                 : 2h 6mn
Bit rate mode                            : Constant
Bit rate                                 : 1 510 Kbps
Channel(s)                               : 6 channels
Channel positions                        : Front: L C R, Side: L R, LFE
Sampling rate                            : 48.0 KHz
Bit depth                                : 24 bits
Compression mode                         : Lossy
Stream size                              : 1.34 GiB (9%)
Title                                    : www.club-hd.com  >>  Inglés DTS 5.1
Language                                 : English
Default                                  : No
Forced                                   : No

Text
ID                                       : 5
Format                                   : UTF-8
Codec ID                                 : S_TEXT/UTF8
Codec ID/Info                            : UTF-8 Plain Text
Language                                 : Spanish
Default                                  : No
Forced                                   : No




Descarga.jpg



MEGA.jpg

Tenemos TODO el material de Club-HD disponible por Mega, enlaces 100% activos y online hasta la fecha

Llévate tus cuentas Mega PRO III gratis con tu membresía VIP!
Todos los posts vivos con links de Mega.
Todo el material de Club-HD desbloqueado y sin publicidad.

Obtén más información sobre nuestras Membresías VIP



UPLOADED_BANNER.png

Para ver este contenido oculto, debes dar click en el botón"Like", o cualquiera de las otras reacciones:

Me Gusta Me Gusta, Me Encanta Me Encanta, Jaja Jaja, Wow Wow, Triste Triste, Molesto Molesto
 
Última edición por un moderador:
Muchas gracias! Me la llevo, tenia pensado sera que la subira Pnsand0 ademas por que ya se viene la 2! En aca recien se estrenara el 15 de agosto y ya falto para el blu ray, genial.
 
Volver