Star Wars. Episode I: The Phantom Menace (1999) 1080p BDRip Dual Latino-Inglés [Subt. Esp-Ing] (Ciencia ficción. Aventura)

Maestro Revolver

Administrador
Registro
9 Ago 2012
Mensajes
3.157
Reacciones (ptje)
55.034


Episode-1.jpg




FICHA_TECNICA.png


TÍTULO ORIGINAL: Star Wars. Episode I: The Phantom Menace
AÑO: 1999
DURACIÓN: 131 min.
PAÍS: USA
DIRECTOR: George Lucas
GUIÓN: George Lucas
REPARTO: Liam Neeson, Ewan McGregor, Natalie Portman, Jake Lloyd, Samuel L. Jackson, Ian McDiarmid, Anthony Daniels, Kenny Baker, Pernilla August, Frank Oz, Ray Park, Terence Stamp, Keira Knightley, Ralph Brown, Warwick Davis
PRODUCTORA: Lucasfilm. Distribuida por 20th Century Fox
GÉNERO: Ciencia ficción. Aventuras | Precuela. Star Wars
imdb-logo.png
: http://www.imdb.com/title/tt0120915/

PREMIOS: 1999: 3 nominaciones al Oscar: Mejor sonido, efectos visuales, efectos de sonido
1999: 2 Nominaciones Premios BAFTA: Mejores efectos visuales y sonido




SINOPSIS.png


Ambientada treinta años antes que "La guerra de las galaxias" (1977), muestra la infancia de Darth Vader, el pasado de Obi-Wan Kenobi y el resurgimiento de los Sith, los caballeros Jedi dominados por el Lado Oscuro. La Federación de Comercio ha bloqueado el pequeño planeta de Naboo, gobernado por la joven Reina Amidala; se trata de un plan ideado por Sith Darth Sidious, que, manteniéndose en el anonimato, dirige a los neimoidianos, que están al mando de la Federación. El Jedi Qui-Gon Jinn y su aprendiz Obi-Wan Kenobi convencen a Amidala para que vaya a Coruscant, la capital de la República y sede del Consejo Jedi, e trate de neutralizar esta amenaza. Pero, al intentar esquivar el bloqueo, la nave real resulta averiada, viéndose así obligada la tripulación a aterrizar en el desértico y remoto planeta de Tatooine...




TRAILER.png






CAPTURAS.png


1.jpg


2.jpg


3.jpg


4.jpg


5.jpg


6.jpg


La pelicula NO tiene ninguna marca... solo colocamos el nombre de esta web en las capturas




DATOS_TECNICOS.png


Código:
General
Format                                   : Matroska
Format version                           : Version 2
File size                                : 7.81 GiB
Duration                                 : 2h 16mn
Overall bit rate                         : 8 206 Kbps
Movie name                               : www.club-hd.com
Encoded date                             : UTC 2013-01-10 03:14:25
Writing application                      : mkvmerge v5.7.0 ('The Whirlwind') built on Jul  8 2012 20:08:51
Writing library                          : libebml v1.2.3 + libmatroska v1.3.0

Video
ID                                       : 1
Format                                   : AVC
Format/Info                              : Advanced Video Codec
Format profile                           : [email protected]
Format settings, CABAC                   : Yes
Format settings, ReFrames                : 4 frames
Codec ID                                 : V_MPEG4/ISO/AVC
Duration                                 : 2h 16mn
Bit rate                                 : 6 347 Kbps
Width                                    : 1 920 pixels
Height                                   : 816 pixels
Display aspect ratio                     : 2.35:1
Frame rate mode                          : Constant
Frame rate                               : 23.976 fps
Color space                              : YUV
Chroma subsampling                       : 4:2:0
Bit depth                                : 8 bits
Scan type                                : Progressive
Bits/(Pixel*Frame)                       : 0.169
Stream size                              : 5.88 GiB (75%)
Title                                    : www.club-hd.com
Writing library                          : x264 core 104 r1675 2484aa0
Language                                 : English
Default                                  : Yes
Forced                                   : No

Audio #1
ID                                       : 2
Format                                   : AC-3
Format/Info                              : Audio Coding 3
Mode extension                           : CM (complete main)
Format settings, Endianness              : Big
Codec ID                                 : A_AC3
Duration                                 : 2h 16mn
Bit rate mode                            : Constant
Bit rate                                 : 448 Kbps
Channel(s)                               : 6 channels
Channel positions                        : Front: L C R, Side: L R, LFE
Sampling rate                            : 48.0 KHz
Bit depth                                : 16 bits
Compression mode                         : Lossy
Stream size                              : 436 MiB (5%)
Title                                    : www.club-hd.com  >>   Latino AC3 5.1
Language                                 : Spanish
Default                                  : Yes
Forced                                   : No

Audio #2
ID                                       : 3
Format                                   : AC-3
Format/Info                              : Audio Coding 3
Mode extension                           : CM (complete main)
Format settings, Endianness              : Big
Codec ID                                 : A_AC3
Duration                                 : 2h 16mn
Bit rate mode                            : Constant
Bit rate                                 : 640 Kbps
Channel(s)                               : 6 channels
Channel positions                        : Front: L C R, Side: L R, LFE
Sampling rate                            : 48.0 KHz
Bit depth                                : 16 bits
Compression mode                         : Lossy
Stream size                              : 623 MiB (8%)
Title                                    : www.club-hd.com  -->  Inglés AC3 5.1
Language                                 : English
Default                                  : No
Forced                                   : No

Audio #3
ID                                       : 4
Format                                   : DTS
Format/Info                              : Digital Theater Systems
Format profile                           : ES
Mode                                     : 16
Format settings, Endianness              : Big
Codec ID                                 : A_DTS
Duration                                 : 2h 16mn
Bit rate mode                            : Constant
Bit rate                                 : 768 Kbps
Channel(s)                               : 7 channels / 6 channels
Channel positions                        : Front: L C R, Side: L R, Back: C, LFE / Front: L C R, Side: L R, LFE
Sampling rate                            : 48.0 KHz
Bit depth                                : 24 bits
Compression mode                         : Lossy
Stream size                              : 748 MiB (9%)
Title                                    : www.club-hd.com  >>  Inglés DTS 5.1
Language                                 : English
Default                                  : No
Forced                                   : No

Text #1
ID                                       : 5
Format                                   : UTF-8
Codec ID                                 : S_TEXT/UTF8
Codec ID/Info                            : UTF-8 Plain Text
Title                                    : Forzados
Language                                 : Spanish
Default                                  : Yes
Forced                                   : No

Text #2
ID                                       : 6
Format                                   : UTF-8
Codec ID                                 : S_TEXT/UTF8
Codec ID/Info                            : UTF-8 Plain Text
Language                                 : Spanish
Default                                  : No
Forced                                   : No

Text #3
ID                                       : 7
Format                                   : UTF-8
Codec ID                                 : S_TEXT/UTF8
Codec ID/Info                            : UTF-8 Plain Text
Language                                 : English
Default                                  : No
Forced                                   : No




Descarga.png



MEGA.jpg

Tenemos TODO el material de Club-HD disponible por Mega, enlaces 100% activos y online hasta la fecha

Llévate tus cuentas Mega PRO III gratis con tu membresía VIP!
Todos los posts vivos con links de Mega.
Todo el material de Club-HD desbloqueado y sin publicidad.

Obtén más información sobre nuestras Membresías VIP

Google Drive Vip.png

Tenemos TODO el material de Club-HD disponible por Mega, enlaces 100% activos y online hasta la fecha

Llévate tus cuentas Mega PRO III gratis con tu membresía VIP!
Todos los posts vivos con links de Mega.
Todo el material de Club-HD desbloqueado y sin publicidad.

Obtén más información sobre nuestras Membresías VIP


google-drive.png

Para ver este contenido oculto, debes dar click en el botón"Like", o cualquiera de las otras reacciones:

Me Gusta Me Gusta, Me Encanta Me Encanta, Jaja Jaja, Wow Wow, Triste Triste, Molesto Molesto

UPLOADED_BANNER.png

Para ver este contenido oculto, debes dar click en el botón"Like", o cualquiera de las otras reacciones:

Me Gusta Me Gusta, Me Encanta Me Encanta, Jaja Jaja, Wow Wow, Triste Triste, Molesto Molesto
 
Última edición por un moderador:
:aplausos:Oh genial en 1080p, Muchas gracias R21...Tb_up3 eres el mejor...:dplgar:
 
que maravilla revolver ahora a empezar esta saga en la super calidad de 1080p, gracias
 
Volver