Star Wars Episode V: The Empire Strikes Back (1980) 1080p BDRip Dual Latino-Inglés [Subt. Esp-Ing] (Ciencia ficción. Aventura)

Maestro Revolver

Well-known member
Miembro del Staff
Administrador
Registro
9 Ago 2012
Mensajes
3.569
Reacciones
59.353
Puntos
113

Reputation:









TÍTULO ORIGINAL: Star Wars. Episode V: The Empire Strikes Back
AÑO: 1980
DURACIÓN: 124 min.
PAÍS: USA
DIRECTOR: Irvin Kershner
GUIÓN: Leigh Brackett & Lawrence Kasdan (Historia: George Lucas)
REPARTO: Mark Hamill, Harrison Ford, Carrie Fisher, Alec Guinness, Billy Dee Williams, Anthony Daniels, David Prowse, Kenny Baker
PRODUCTORA: 20th Century Fox
GÉNERO: Ciencia ficción. Aventuras | Aventura espacial. Secuela. Película de culto. Star Wars
: http://www.imdb.com/title/tt0080684/





Tras un ataque sorpresa de las tropas imperiales a las bases camufladas de la alianza rebelde, Luke Skywalker, en compañía de R2D2, parte hacia el planeta Dagobah en busca de Yoda, el último maestro Jedi, para que le enseñe los secretos de la Fuerza. Mientras, Han Solo, la princesa Leia, Chewbacca, y C3PO esquivan a las fuerzas imperiales y piden refugio al antiguo propietario del Halcón Milenario, Lando Calrissian, en la ciudad minera de Bespin, donde les prepara una trampa urdida por Darth Vader.
























La pelicula NO tiene ninguna marca... solo colocamos el nombre de esta web en las capturas






Código:
General
Format                                   : Matroska
Format version                           : Version 2
File size                                : 7.82 GiB
Duration                                 : 2h 7mn
Overall bit rate                         : 8 788 Kbps
Movie name                               : www.club-hd.com
Encoded date                             : UTC 2013-01-18 04:51:10
Writing application                      : mkvmerge v5.7.0 ('The Whirlwind') built on Jul  8 2012 20:08:51
Writing library                          : libebml v1.2.3 + libmatroska v1.3.0

Video
ID                                       : 1
Format                                   : AVC
Format/Info                              : Advanced Video Codec
Format profile                           : High@L4.1
Format settings, CABAC                   : Yes
Format settings, ReFrames                : 4 frames
Codec ID                                 : V_MPEG4/ISO/AVC
Duration                                 : 2h 7mn
Bit rate                                 : 6 929 Kbps
Width                                    : 1 920 pixels
Height                                   : 816 pixels
Display aspect ratio                     : 2.35:1
Frame rate mode                          : Constant
Frame rate                               : 23.976 fps
Color space                              : YUV
Chroma subsampling                       : 4:2:0
Bit depth                                : 8 bits
Scan type                                : Progressive
Bits/(Pixel*Frame)                       : 0.184
Stream size                              : 6.02 GiB (77%)
Title                                    : www.club-hd.com
Language                                 : English
Default                                  : Yes
Forced                                   : No

Audio #1
ID                                       : 2
Format                                   : AC-3
Format/Info                              : Audio Coding 3
Mode extension                           : CM (complete main)
Format settings, Endianness              : Big
Codec ID                                 : A_AC3
Duration                                 : 2h 7mn
Bit rate mode                            : Constant
Bit rate                                 : 448 Kbps
Channel(s)                               : 6 channels
Channel positions                        : Front: L C R, Side: L R, LFE
Sampling rate                            : 48.0 KHz
Bit depth                                : 16 bits
Compression mode                         : Lossy
Stream size                              : 408 MiB (5%)
Title                                    : www.club-hd.com  >>  Latino AC3 5.1
Language                                 : Spanish
Default                                  : Yes
Forced                                   : No

Audio #2
ID                                       : 3
Format                                   : AC-3
Format/Info                              : Audio Coding 3
Mode extension                           : CM (complete main)
Format settings, Endianness              : Big
Codec ID                                 : A_AC3
Duration                                 : 2h 7mn
Bit rate mode                            : Constant
Bit rate                                 : 640 Kbps
Channel(s)                               : 6 channels
Channel positions                        : Front: L C R, Side: L R, LFE
Sampling rate                            : 48.0 KHz
Bit depth                                : 16 bits
Compression mode                         : Lossy
Stream size                              : 583 MiB (7%)
Title                                    : www.club-hd.com  -->  Ingles AC3 5.1
Language                                 : English
Default                                  : No
Forced                                   : No

Audio #3
ID                                       : 4
Format                                   : DTS
Format/Info                              : Digital Theater Systems
Format profile                           : ES
Codec ID                                 : A_DTS
Duration                                 : 2h 7mn
Bit rate mode                            : Constant
Bit rate                                 : 755 Kbps
Channel(s)                               : 7 channels / 6 channels
Channel positions                        : Front: L C R, Side: L R, Back: C, LFE / Front: L C R, Side: L R, LFE
Sampling rate                            : 48.0 KHz
Bit depth                                : 24 bits
Compression mode                         : Lossy
Stream size                              : 687 MiB (9%)
Title                                    : www.club-hd.com  -->  Ingles DTS 5.1
Language                                 : English
Default                                  : No
Forced                                   : No

Text #1
ID                                       : 5
Format                                   : UTF-8
Codec ID                                 : S_TEXT/UTF8
Codec ID/Info                            : UTF-8 Plain Text
Language                                 : Spanish
Default                                  : No
Forced                                   : No

Text #2
ID                                       : 6
Format                                   : UTF-8
Codec ID                                 : S_TEXT/UTF8
Codec ID/Info                            : UTF-8 Plain Text
Language                                 : English
Default                                  : No
Forced                                   : No

Menu
00:00:00.000                             : en:Opening Logos
00:00:21.104                             : en:The Empire Strikes Back
00:01:54.865                             : en:Ice Planet Hoth
00:04:15.839                             : en:The Rebel Base
00:08:19.249                             : en:Escape From The Wampa
00:10:15.949                             : en:Closing The Doors
00:12:57.735                             : en:Obi-Wan's Instructions
00:15:13.538                             : en:Search Party
00:16:29.697                             : en:Luke's Recovery
00:18:19.974                             : en:Imperial Probe Droid
00:19:45.393                             : en:The Imperial Fleet
00:21:22.698                             : en:Preparing For Battle
00:23:57.728                             : en:First Transport Away
00:25:49.423                             : en:Battle In The Snow
00:29:29.351                             : en:The Tide Turns
00:31:29.221                             : en:Rebels In Retreat
00:33:37.682                             : en:Escape Aboard The Falcon
00:35:55.153                             : en:Leaving For Dagobah
00:36:51.251                             : en:The Empire In Pursuit
00:38:33.561                             : en:Asteroid Field
00:40:36.726                             : en:Crash Landing On Dagobah
00:44:20.074                             : en:Hunting The Falcon
00:46:08.391                             : en:"Found Someone, You Have"
00:50:13.385                             : en:Interrupted Kiss
00:52:16.633                             : en:The Emperor's Message
00:54:20.257                             : en:Yoda's Hut
00:57:40.290                             : en:"This Is No Cave"
01:00:57.946                             : en:Jedi Training
01:03:42.777                             : en:Failure At The Cave
01:05:46.109                             : en:Bounty Hunters
01:08:12.171                             : en:There Is No Try
01:13:24.233                             : en:Out With The Garbage
01:16:39.887                             : en:Seeing The Future
01:18:24.116                             : en:City In The Clouds
01:19:45.864                             : en:Meeting Lando
01:22:55.929                             : en:Leaving Dagobah
01:25:38.550                             : en:Leia's Concerns
01:27:51.266                             : en:Imperial Surprise
01:30:28.673                             : en:The Deal Gets Worse
01:34:39.799                             : en:Carbon-Freeze
01:38:28.903                             : en:Luke Enters The Trap
01:40:26.145                             : en:Confronting The Dark Lord
01:41:46.100                             : en:Lando's Second Surprise
01:43:51.434                             : en:Lightsaber Duel
01:47:02.541                             : en:Escape From Cloud City
01:49:21.472                             : en:Vader's Revelation
01:53:41.690                             : en:Falcon To The Rescue
01:56:14.843                             : en:The Empire Closes In
01:59:46.596                             : en:The Rebel Fleet
02:01:58.228                             : en:End Credits











Enlaces de Mega y Fireload solo disponibles para Miembros VIP

Compra tu Membresía VIP y apoya a Club-HD!

ATENCIÓN! Tenemos TODO el material de Club-HD disponible por Mega y Fireload, enlaces 100% activos y online hasta la fecha

Llévate tus cuentas Mega PRO II gratis con tu membresía VIP!
Todos los posts vivos con links de Mega y Fireload.
Todo el material de Club-HD desbloqueado y sin publicidad.

Click Aquí para más información.

Enlaces de Mega y Fireload solo disponibles para Miembros VIP

Compra tu Membresía VIP y apoya a Club-HD!

ATENCIÓN! Tenemos TODO el material de Club-HD disponible por Mega y Fireload, enlaces 100% activos y online hasta la fecha

Llévate tus cuentas Mega PRO II gratis con tu membresía VIP!
Todos los posts vivos con links de Mega y Fireload.
Todo el material de Club-HD desbloqueado y sin publicidad.

Click Aquí para más información.


Para ver este contenido oculto, debes dar click en una de las siguientes reacciones : Like Like, Love Love, Haha Haha, Wow Wow, Sad Sad, Angry Angry

Para ver este contenido oculto, debes dar click en una de las siguientes reacciones : Like Like, Love Love, Haha Haha, Wow Wow, Sad Sad, Angry Angry
 
Última edición por un moderador:

sinpk2

New member
Registro
29 Ago 2012
Mensajes
360
Reacciones
17
Puntos
0

Reputation:

Noooooooooooooooooooooo nooooooooooooo porke a miiiiiiiiiiiiiiiiii, noooooooooooooooooo noooooooooooooooooooooooooooooooo se me termino la cuenta premium noooooooooooo y tu colocas esta gran peliculaaaaa noooooooooooooooooooooooooooooooooooooooooooooooooooo, tendre ke salir a vender por las calles para comprar una pequeña cuenta, snif snif snif........Gracias por la pelicual, la bajare aunke me demore 1 mes ;)
 

Mate78

Ladron de mi cerebro
Miembro del Staff
Súper Moderador
Registro
27 Ago 2012
Mensajes
1.235
Reacciones
918
Puntos
113

Reputation:

Cada dia mas bestia , gracias R21 !!!!:aplausos:
 

Ezze

Well-known member
Miembro del Staff
Súper Moderador
Registro
28 Ago 2012
Mensajes
1.663
Reacciones
1.790
Puntos
113
Ubicación
En la Torre de Observación

Reputation:

bye Imperdible!!!! Seria un tonto sin no la descargo... Muchas gracias Rev por tan gran trabajo!!!!!
 

vhrod

Well-known member
Miembro VIP
Registro
27 Ago 2012
Mensajes
1.368
Reacciones
38
Puntos
48

Reputation:

Desc_g_ Muchas Gracias por poner esta saga en 1080
 

Usuarios Que Están Viendo Este Tema (Total: 1, Miembros: 0, Invitados: 1)

Arriba