Starship Troopers: Invasion (2012) 720p BDRip Dual Latino-Inglés [Subt. Esp] (Animación)

Maestro Revolver

Well-known member
Miembro del Staff
Administrador
Registro
9 Ago 2012
Mensajes
3.567








TÍTULO ORIGINAL: Starship Troopers: Invasion
AÑO: 2012
DURACIÓN: 85 min.
PAÍS: Japón
DIRECTOR: Shinji Aramaki
GUIÓN: Flint Dille (Novela: Robert A. Heinlein)
REPARTO: Animation
PRODUCTORA: Coproducción Japón-EEUU
GÉNERO: Animación. Ciencia ficción. Acción | Extraterrestres
: http://www.imdb.com/title/tt2085930/






Fort Casey, un puesto avanzado de La Federación, es atacado por los bichos. El equipo de la nave incursora Alesia es asignado para ayudar al Starship John A. Warden con la evacuación de los supervivientes, así como para devolver a la inteligencia Militar sana y salva a la Tierra. Carl Jenkins, ahora ministro de Guerra Paranormal, se pierde en el espacio cuando lleva a la tripulación a una misión clandestina antes de reunirse con el Alesia. Ahora, los duros veteranos de guerra tendrán que llevar a cabo una misión que podría llevar a un siniestro de proporciones catastróficas mucho mayor de lo que jamás habían imaginado.
























La pelicula NO tiene ninguna marca... solo colocamos el nombre de esta web en las capturas






Código:
General
Format                                   : Matroska
Format version                           : Version 2
File size                                : 4.11 GiB
Duration                                 : 1h 28mn
Overall bit rate                         : 6 621 Kbps
Movie name                               : www.club-hd.com
Encoded date                             : UTC 2013-07-14 16:28:39
Writing application                      : mkvmerge v5.7.0 ('The Whirlwind') built on Jul  8 2012 20:08:51
Writing library                          : libebml v1.2.3 + libmatroska v1.3.0

Video
ID                                       : 1
Format                                   : AVC
Format/Info                              : Advanced Video Codec
Format profile                           : High@L4.1
Format settings, CABAC                   : Yes
Format settings, ReFrames                : 5 frames
Codec ID                                 : V_MPEG4/ISO/AVC
Duration                                 : 1h 28mn
Bit rate                                 : 5 532 Kbps
Width                                    : 1 280 pixels
Height                                   : 720 pixels
Display aspect ratio                     : 16:9
Frame rate mode                          : Constant
Frame rate                               : 23.976 fps
Color space                              : YUV
Chroma subsampling                       : 4:2:0
Bit depth                                : 8 bits
Scan type                                : Progressive
Bits/(Pixel*Frame)                       : 0.250
Stream size                              : 3.35 GiB (82%)
Title                                    : www.club-hd.com
Writing library                          : x264 core 125 r2208 d9d2288
Language                                 : English
Default                                  : Yes
Forced                                   : No

Audio #1
ID                                       : 2
Format                                   : AC-3
Format/Info                              : Audio Coding 3
Mode extension                           : CM (complete main)
Format settings, Endianness              : Big
Codec ID                                 : A_AC3
Duration                                 : 1h 28mn
Bit rate mode                            : Constant
Bit rate                                 : 640 Kbps
Channel(s)                               : 6 channels
Channel positions                        : Front: L C R, Side: L R, LFE
Sampling rate                            : 48.0 KHz
Bit depth                                : 16 bits
Compression mode                         : Lossy
Stream size                              : 407 MiB (10%)
Title                                    : www.club-hd.com  >>  Latino
Language                                 : Spanish
Default                                  : Yes
Forced                                   : No

Audio #2
ID                                       : 3
Format                                   : AC-3
Format/Info                              : Audio Coding 3
Mode extension                           : CM (complete main)
Format settings, Endianness              : Big
Codec ID                                 : A_AC3
Duration                                 : 1h 28mn
Bit rate mode                            : Constant
Bit rate                                 : 448 Kbps
Channel(s)                               : 6 channels
Channel positions                        : Front: L C R, Side: L R, LFE
Sampling rate                            : 48.0 KHz
Bit depth                                : 16 bits
Compression mode                         : Lossy
Stream size                              : 285 MiB (7%)
Title                                    : www.club-hd.com  >>  Inglés
Language                                 : English
Default                                  : No
Forced                                   : No

Text
ID                                       : 4
Format                                   : UTF-8
Codec ID                                 : S_TEXT/UTF8
Codec ID/Info                            : UTF-8 Plain Text
Language                                 : Spanish
Default                                  : No
Forced                                   : No

Menu
00:00:00.000                             : en:00:00:00.000
00:06:01.611                             : en:00:06:01.611
00:10:44.394                             : en:00:10:44.394
00:16:59.310                             : en:00:16:59.310
00:20:35.192                             : en:00:20:35.192
00:26:48.440                             : en:00:26:48.440
00:32:48.133                             : en:00:32:48.133
00:39:01.798                             : en:00:39:01.798
00:44:34.422                             : en:00:44:34.422
00:51:01.517                             : en:00:51:01.517
00:56:55.621                             : en:00:56:55.621
01:00:33.755                             : en:01:00:33.755
01:04:49.135                             : en:01:04:49.135
01:08:09.168                             : en:01:08:09.168
01:13:16.225                             : en:01:13:16.225
01:18:14.189                             : en:01:18:14.189








Enlaces de Mega y Google Drive solo disponibles para Miembros VIP

Compra tu Membresía VIP y apoya a Club-HD!

ATENCIÓN! Tenemos TODO el material de Club-HD disponible por Mega y Google Drive, enlaces 100% activos y online hasta la fecha

Llévate tus cuentas Mega PRO III gratis con tu membresía VIP!
Todos los posts vivos con links de Mega y Google Drive.
Todo el material de Club-HD desbloqueado y sin publicidad.

Click Aquí para más información.



Para ver este contenido oculto, debes dar click en una de las siguientes reacciones : Like Like, Love Love, Haha Haha, Wow Wow, Sad Sad, Angry Angry

 
Última edición por un moderador:

Doctor Jason

New member
Súper Moderador
Registro
1 Sep 2012
Mensajes
2.398
Ubicación
Buenos Aires
Muchisimas Gracias!!!

Esta peli está muy buena, sería la 4° parte y la primera animada, muy al estilo de las Resident Evil en CGI y dirigida por Shinji Aramaki el mismo de la peli animada "Appleseed", cuenta también con el regreso de los personajes favoritos como Johhny Rico, el Capitán Ibañez y Carl Jenkins.

Saludos.bye
 

Usuarios Que Están Viendo Este Tema (Total: 1, Miembros: 0, Invitados: 1)

Quién Leyó Este Tema (Total Miembros: 3)

Arriba