Step Up 2: The Streets (2008) m-720p BDRip Dual Latino-Inglés [Subt. Esp] (Musical. Drama)

Maestro Revolver

Miembro del Staff
Administrador
Registro
9 Ago 2012
Mensajes
3.161








TÍTULO ORIGINAL: Step Up 2 the Streets
AÑO: 2008
DURACIÓN: 98 min.
PAÍS: USA
DIRECTOR: Jon Chu
GUIÓN: Toni Ann Johnson, Karen Barna (Personajes: Duane Adler)
REPARTO: Briana Evigan, Robert Hoffman, Telisha Shaw, Will Kemp, Adam G. Sevani, Cassie Ventura, Danielle Polanco, Christopher Scott, Channing Tatum
PRODUCTORA: Touchstone Pictures / Summit Entertainment
GÉNERO: Musical. Drama | Adolescencia. Baile. Secuela
: http://www.imdb.com/title/tt1023481/






Cuando Andie, una temperamental bailarina, ingresa en la Maryland School of the Arts, no le resulta fácil integrarse en el grupo sin perder su personalidad. Así que decide unirse a Chase (Robert Hoffman), el bailarin con más carácter de la escuela, para formar un grupo de alumnos marginados que participarán en una competición de baile alternativo de Baltimore ("The Streets").
























La pelicula NO tiene ninguna marca... solo colocamos el nombre de esta web en las capturas






Código:
General
Format                                   : Matroska
Format version                           : Version 2
File size                                : 2.22 GiB
Duration                                 : 1h 37mn
Overall bit rate                         : 3 257 Kbps
Movie name                               : www.club-hd.com
Encoded date                             : UTC 2013-07-10 04:04:42
Writing application                      : mkvmerge v5.7.0 ('The Whirlwind') built on Jul  8 2012 20:08:51
Writing library                          : libebml v1.2.3 + libmatroska v1.3.0

Video
ID                                       : 1
Format                                   : AVC
Format/Info                              : Advanced Video Codec
Format profile                           : High@L4.1
Format settings, CABAC                   : Yes
Format settings, ReFrames                : 9 frames
Codec ID                                 : V_MPEG4/ISO/AVC
Duration                                 : 1h 37mn
Bit rate                                 : 2 424 Kbps
Nominal bit rate                         : 2 620 Kbps
Width                                    : 1 280 pixels
Height                                   : 694 pixels
Display aspect ratio                     : 1.85:1
Frame rate mode                          : Constant
Frame rate                               : 24.000 fps
Color space                              : YUV
Chroma subsampling                       : 4:2:0
Bit depth                                : 8 bits
Scan type                                : Progressive
Bits/(Pixel*Frame)                       : 0.114
Stream size                              : 1.65 GiB (74%)
Title                                    : www.club-hd.com
Writing library                          : x264 core 125 r2208 d9d2288
Language                                 : English
Default                                  : Yes
Forced                                   : No

Audio #1
ID                                       : 2
Format                                   : AC-3
Format/Info                              : Audio Coding 3
Mode extension                           : CM (complete main)
Format settings, Endianness              : Big
Codec ID                                 : A_AC3
Duration                                 : 1h 37mn
Bit rate mode                            : Constant
Bit rate                                 : 320 Kbps
Channel(s)                               : 6 channels
Channel positions                        : Front: L C R, Side: L R, LFE
Sampling rate                            : 48.0 KHz
Bit depth                                : 16 bits
Compression mode                         : Lossy
Stream size                              : 224 MiB (10%)
Title                                    : www.club-hd.com  >>  Latino
Language                                 : Spanish
Default                                  : Yes
Forced                                   : No

Audio #2
ID                                       : 3
Format                                   : AC-3
Format/Info                              : Audio Coding 3
Mode extension                           : CM (complete main)
Format settings, Endianness              : Big
Codec ID                                 : A_AC3
Duration                                 : 1h 37mn
Bit rate mode                            : Constant
Bit rate                                 : 448 Kbps
Channel(s)                               : 6 channels
Channel positions                        : Front: L C R, Side: L R, LFE
Sampling rate                            : 48.0 KHz
Bit depth                                : 16 bits
Compression mode                         : Lossy
Stream size                              : 313 MiB (14%)
Title                                    : www.club-hd.com  >>  Inglés
Language                                 : English
Default                                  : No
Forced                                   : No

Text
ID                                       : 4
Format                                   : UTF-8
Codec ID                                 : S_TEXT/UTF8
Codec ID/Info                            : UTF-8 Plain Text
Language                                 : Spanish
Default                                  : No
Forced                                   : No

Menu
00:00:00.000                             : en:Opening
00:07:50.000                             : en:The 410 Crew
00:14:57.000                             : en:Battle With Royalty
00:24:30.000                             : en:The Audition
00:33:51.000                             : en:New School, New Friends
00:42:32.833                             : en:Special Attention
00:50:27.000                             : en:"MSA After Hours"
01:01:38.000                             : en:MSA Crew Prank
01:11:37.000                             : en:"It's Over"
01:15:46.542                             : en:Fundraiser Vs. The Streets
01:23:26.750                             : en:Back to the Streets
01:31:22.000                             : en:End Credits








Enlaces de Mega y Google Drive solo disponibles para Miembros VIP

Compra tu Membresía VIP y apoya a Club-HD!

ATENCIÓN! Tenemos TODO el material de Club-HD disponible por Mega y Google Drive, enlaces 100% activos y online hasta la fecha

Llévate tus cuentas Mega PRO III gratis con tu membresía VIP!
Todos los posts vivos con links de Mega y Google Drive.
Todo el material de Club-HD desbloqueado y sin publicidad.

Click Aquí para más información.



Enlaces de Mega y Google Drive solo disponibles para Miembros VIP

Compra tu Membresía VIP y apoya a Club-HD!

ATENCIÓN! Tenemos TODO el material de Club-HD disponible por Mega y Google Drive, enlaces 100% activos y online hasta la fecha

Llévate tus cuentas Mega PRO III gratis con tu membresía VIP!
Todos los posts vivos con links de Mega y Google Drive.
Todo el material de Club-HD desbloqueado y sin publicidad.

Click Aquí para más información.



Para ver este contenido oculto, debes dar click en una de las siguientes reacciones : Like Like, Love Love, Haha Haha, Wow Wow, Sad Sad, Angry Angry



Para ver este contenido oculto, debes dar click en una de las siguientes reacciones : Like Like, Love Love, Haha Haha, Wow Wow, Sad Sad, Angry Angry
 
Última edición por un moderador:
Registro
27 Ago 2012
Mensajes
277
Ubicación
Argentina
Sin lugar a dudas unas de las mejores películas de baile con bandas sonoras excepcionales, recomendada.

Desc_g_
 

Usuarios Que Están Viendo Este Tema (Total: 1, Miembros: 0, Invitados: 1)

Quién Leyó Este Tema (Total Miembros: 4)

Arriba