Step Up (2006) m-720p BDRip Dual Latino-Inglés [Subt. Esp] (Musical. Drama)

Maestro Revolver

Well-known member
Miembro del Staff
Administrador
Registro
9 Ago 2012
Mensajes
3.567








TÍTULO ORIGINAL: Step Up
AÑO: 2006
DURACIÓN: 98 min.
PAÍS: USA
DIRECTOR: Anne Fletcher
GUIÓN: Duane Adler, Melissa Rosenberg (Historia: Duane Adler)
REPARTO: Channing Tatum, Jenna Dewan, Rachel Griffiths, Mario, Drew Sidora, Heavy D, Damaine Radcliff, De'Shawn Washington, Josh Henderson, Deirdre Lovejoy, Alyson Stoner
PRODUCTORA: Touchstone Pictures / Summit Entertainment / Offspring Entertainment
GÉNERO: Musical. Drama. Romance | Baile. Adolescencia
: http://www.imdb.com/title/tt0462590/






Tyler Gage (Channing Tatum) ha crecido y pasado toda su vida en los barrios más peligrosos de la ciudad de Baltimore y sabe que es poco probable que alguna vez salga de ahí. Un día, tras un roce con la ley, Tyler es sentenciado a realizar un servicio comunitario en la Escuela de Artes de Maryland. Allí conoce a Nora (Jenna Dewan), una atractiva bailarina que está buscando desesperadamente a alguien que sustituya a su compañero, de baja por accidente, antes de la importantísima Exhibición Senior de la escuela. Espiando los movimientos de Tyler, Nora no puede evitar notar que tiene un talento natural sin pulir. Decide arriesgarse con Tyler pero, cuando empiezan a entrenar, la tensión entre ellos y sus orígenes tan opuestos, hacen combustión. Lo único que separa a Tyler del vacío son sus sueños de salir de las calles, y lo único que se interpone en el brillante futuro de Nora es la Exhibición Senior. Ahora, con tanto en riesgo, Tyler tendrá sólo una presentación para probarle a Nora, y a sí mismo, que puede ascender a una vida mucho mejor de lo que jamás imaginó.
























La pelicula NO tiene ninguna marca... solo colocamos el nombre de esta web en las capturas






Código:
General
Format                                   : Matroska
Format version                           : Version 2
File size                                : 2.34 GiB
Duration                                 : 1h 43mn
Overall bit rate                         : 3 241 Kbps
Movie name                               : www.club-hd.com
Encoded date                             : UTC 2013-07-10 03:31:03
Writing application                      : mkvmerge v5.7.0 ('The Whirlwind') built on Jul  8 2012 20:08:51
Writing library                          : libebml v1.2.3 + libmatroska v1.3.0

Video
ID                                       : 1
Format                                   : AVC
Format/Info                              : Advanced Video Codec
Format profile                           : High@L4.1
Format settings, CABAC                   : Yes
Format settings, ReFrames                : 9 frames
Codec ID                                 : V_MPEG4/ISO/AVC
Duration                                 : 1h 43mn
Bit rate                                 : 2 600 Kbps
Width                                    : 1 280 pixels
Height                                   : 548 pixels
Display aspect ratio                     : 2.35:1
Frame rate mode                          : Constant
Frame rate                               : 23.976 fps
Color space                              : YUV
Chroma subsampling                       : 4:2:0
Bit depth                                : 8 bits
Scan type                                : Progressive
Bits/(Pixel*Frame)                       : 0.155
Stream size                              : 1.83 GiB (78%)
Title                                    : www.club-hd.com
Writing library                          : x264 core 125 r2208 d9d2288
Language                                 : English
Default                                  : Yes
Forced                                   : No

Audio #1
ID                                       : 2
Format                                   : AC-3
Format/Info                              : Audio Coding 3
Mode extension                           : CM (complete main)
Format settings, Endianness              : Big
Codec ID                                 : A_AC3
Duration                                 : 1h 43mn
Bit rate mode                            : Constant
Bit rate                                 : 192 Kbps
Channel(s)                               : 2 channels
Channel positions                        : Front: L R
Sampling rate                            : 48.0 KHz
Bit depth                                : 16 bits
Compression mode                         : Lossy
Stream size                              : 142 MiB (6%)
Title                                    : www.club-hd.com > Latino
Language                                 : Spanish
Default                                  : Yes
Forced                                   : No

Audio #2
ID                                       : 3
Format                                   : AC-3
Format/Info                              : Audio Coding 3
Mode extension                           : CM (complete main)
Format settings, Endianness              : Big
Codec ID                                 : A_AC3
Duration                                 : 1h 43mn
Bit rate mode                            : Constant
Bit rate                                 : 448 Kbps
Channel(s)                               : 6 channels
Channel positions                        : Front: L C R, Side: L R, LFE
Sampling rate                            : 48.0 KHz
Bit depth                                : 16 bits
Compression mode                         : Lossy
Stream size                              : 332 MiB (14%)
Title                                    : www.club-hd.com > Inglés
Language                                 : English
Default                                  : No
Forced                                   : No

Text
ID                                       : 4
Format                                   : UTF-8
Codec ID                                 : S_TEXT/UTF8
Codec ID/Info                            : UTF-8 Plain Text
Language                                 : Spanish
Default                                  : No
Forced                                   : No

Menu
00:00:00.000                             : en:Opening Titles
00:09:40.079                             : en:Maryland School of the Performing Arts
00:19:30.252                             : en:Grace Period
00:27:58.510                             : en:A New Dance Partner
00:36:21.262                             : en:Rehearsals
00:44:25.329                             : en:Quitting
00:51:41.556                             : en:A Different Routine
00:56:47.487                             : en:What Do You Want?
01:05:51.822                             : en:Replaced
01:18:35.794                             : en:Breaking the Rules
01:29:49.258                             : en:Senior Showcase
01:39:09.193                             : en:End Credits








Enlaces de Mega y Google Drive solo disponibles para Miembros VIP

Compra tu Membresía VIP y apoya a Club-HD!

ATENCIÓN! Tenemos TODO el material de Club-HD disponible por Mega y Google Drive, enlaces 100% activos y online hasta la fecha

Llévate tus cuentas Mega PRO III gratis con tu membresía VIP!
Todos los posts vivos con links de Mega y Google Drive.
Todo el material de Club-HD desbloqueado y sin publicidad.

Click Aquí para más información.



Enlaces de Mega y Google Drive solo disponibles para Miembros VIP

Compra tu Membresía VIP y apoya a Club-HD!

ATENCIÓN! Tenemos TODO el material de Club-HD disponible por Mega y Google Drive, enlaces 100% activos y online hasta la fecha

Llévate tus cuentas Mega PRO III gratis con tu membresía VIP!
Todos los posts vivos con links de Mega y Google Drive.
Todo el material de Club-HD desbloqueado y sin publicidad.

Click Aquí para más información.



Para ver este contenido oculto, debes dar click en una de las siguientes reacciones : Like Like, Love Love, Haha Haha, Wow Wow, Sad Sad, Angry Angry



Para ver este contenido oculto, debes dar click en una de las siguientes reacciones : Like Like, Love Love, Haha Haha, Wow Wow, Sad Sad, Angry Angry
 
Última edición por un moderador:

Usuarios Que Están Viendo Este Tema (Total: 1, Miembros: 0, Invitados: 1)

Quién Leyó Este Tema (Total Miembros: 4)

Arriba