Stoker (2013) 720p BDRip Dual Latino-Inglés [Subt. Esp] (Intriga. Thriller)

Maestro Revolver

Well-known member
Miembro del Staff
Administrador
Registro
9 Ago 2012
Mensajes
3.567








TÍTULO ORIGINAL: Stoker
AÑO: 2013
DURACIÓN: 98 min.
PAÍS: USA
DIRECTOR: Park Chan-wook
GUIÓN: Wentworth Miller
REPARTO: Mia Wasikowska, Matthew Goode, Nicole Kidman, Jacki Weaver, Dermot Mulroney, Lucas Till, Ralph Brown, Alden Ehrenreich, Phyllis Somerville, Wendy Keeling, Lauren E. Roman, Tyler von Tagen, Judith Godrèche
PRODUCTORA: Fox Searchlight Pictures / Scott Free Productions
GÉNERO: Intriga. Thriller | Thriller psicológico. Drama psicológico. Familia
: http://www.imdb.com/title/tt1682180/






Cuando India Stoker (Mia Wasikowska), una adolescente, pierde a su padre (Dermot Mulroney) en un trágico accidente de coche el día en que cumple 18 años, su vida se hace añicos. Su impasible comportamiento oculta profundos sentimientos que sólo su padre comprendía. Cuando Charlie (Matthew Goode), el hermano de su padre, aparece por sorpresa en el funeral, decide hacerse cargo de ella y de su inestable madre (Nicole Kidman). Aunque al principio desconfía de su encantador y misterioso tío, pronto se da cuenta de que tienen mucho en común. Debut en EEUU del director coreano Park Chan-wook (Old Boy).
























La pelicula NO tiene ninguna marca... solo colocamos el nombre de esta web en las capturas






Código:
General
Format                                   : Matroska
Format version                           : Version 2
File size                                : 3.90 GiB
Duration                                 : 1h 38mn
Overall bit rate                         : 5 643 Kbps
Movie name                               : www.club-hd.com
Encoded date                             : UTC 2013-06-08 00:19:08
Writing application                      : mkvmerge v5.7.0 ('The Whirlwind') built on Jul  8 2012 20:08:51
Writing library                          : libebml v1.2.3 + libmatroska v1.3.0

Video
ID                                       : 1
Format                                   : AVC
Format/Info                              : Advanced Video Codec
Format profile                           : High@L4.1
Format settings, CABAC                   : Yes
Format settings, ReFrames                : 5 frames
Codec ID                                 : V_MPEG4/ISO/AVC
Duration                                 : 1h 38mn
Bit rate                                 : 4 635 Kbps
Nominal bit rate                         : 4 875 Kbps
Width                                    : 1 280 pixels
Height                                   : 534 pixels
Display aspect ratio                     : 2.40:1
Frame rate mode                          : Constant
Frame rate                               : 23.976 fps
Color space                              : YUV
Chroma subsampling                       : 4:2:0
Bit depth                                : 8 bits
Scan type                                : Progressive
Bits/(Pixel*Frame)                       : 0.283
Stream size                              : 3.20 GiB (82%)
Title                                    : www.club-hd.com
Writing library                          : x264 core 130 r2273 b3065e6
Language                                 : English
Default                                  : Yes
Forced                                   : No

Audio #1
ID                                       : 2
Format                                   : AC-3
Format/Info                              : Audio Coding 3
Mode extension                           : CM (complete main)
Format settings, Endianness              : Big
Codec ID                                 : A_AC3
Duration                                 : 1h 38mn
Bit rate mode                            : Constant
Bit rate                                 : 448 Kbps
Channel(s)                               : 6 channels
Channel positions                        : Front: L C R, Side: L R, LFE
Sampling rate                            : 48.0 KHz
Bit depth                                : 16 bits
Compression mode                         : Lossy
Stream size                              : 317 MiB (8%)
Title                                    : www.club-hd.com  >>  Latino
Language                                 : Spanish
Default                                  : Yes
Forced                                   : No

Audio #2
ID                                       : 3
Format                                   : AC-3
Format/Info                              : Audio Coding 3
Mode extension                           : CM (complete main)
Format settings, Endianness              : Big
Codec ID                                 : A_AC3
Duration                                 : 1h 38mn
Bit rate mode                            : Constant
Bit rate                                 : 448 Kbps
Channel(s)                               : 6 channels
Channel positions                        : Front: L C R, Side: L R, LFE
Sampling rate                            : 48.0 KHz
Bit depth                                : 16 bits
Compression mode                         : Lossy
Stream size                              : 317 MiB (8%)
Title                                    : www.club-hd.com  >>  Inglés
Language                                 : English
Default                                  : No
Forced                                   : No

Text
ID                                       : 4
Format                                   : UTF-8
Codec ID                                 : S_TEXT/UTF8
Codec ID/Info                            : UTF-8 Plain Text
Language                                 : Spanish
Default                                  : No
Forced                                   : No

Menu
00:00:00.000                             : en:00:00:00.000
00:03:48.603                             : en:00:03:48.603
00:04:37.277                             : en:00:04:37.277
00:07:26.863                             : en:00:07:26.863
00:08:42.147                             : en:00:08:42.147
00:13:28.558                             : en:00:13:28.558
00:16:59.810                             : en:00:16:59.810
00:19:24.955                             : en:00:19:24.955
00:22:27.096                             : en:00:22:27.096
00:26:50.067                             : en:00:26:50.067
00:30:26.533                             : en:00:30:26.533
00:34:43.290                             : en:00:34:43.290
00:39:18.565                             : en:00:39:18.565
00:41:47.505                             : en:00:41:47.505
00:46:14.772                             : en:00:46:14.772
00:49:42.730                             : en:00:49:42.730
00:52:46.830                             : en:00:52:46.830
00:54:50.496                             : en:00:54:50.496
00:59:21.558                             : en:00:59:21.558
01:02:43.051                             : en:01:02:43.051
01:07:04.187                             : en:01:07:04.187
01:08:38.239                             : en:01:08:38.239
01:15:24.895                             : en:01:15:24.895
01:18:14.773                             : en:01:18:14.773
01:22:11.927                             : en:01:22:11.927
01:26:22.511                             : en:01:26:22.511
01:31:17.472                             : en:01:31:17.472
01:34:38.214                             : en:01:34:38.214








Enlaces de Mega y Google Drive solo disponibles para Miembros VIP

Compra tu Membresía VIP y apoya a Club-HD!

ATENCIÓN! Tenemos TODO el material de Club-HD disponible por Mega y Google Drive, enlaces 100% activos y online hasta la fecha

Llévate tus cuentas Mega PRO III gratis con tu membresía VIP!
Todos los posts vivos con links de Mega y Google Drive.
Todo el material de Club-HD desbloqueado y sin publicidad.

Click Aquí para más información.


Para ver este contenido oculto, debes dar click en una de las siguientes reacciones : Like Like, Love Love, Haha Haha, Wow Wow, Sad Sad, Angry Angry
 
Última edición por un moderador:

Usuarios Que Están Viendo Este Tema (Total: 1, Miembros: 0, Invitados: 1)

Quién Leyó Este Tema (Total Miembros: 5)

Arriba