Stolen (2012) m-720p Audio Inglés [Subt. Esp] (Acción)

Maestro Revolver

Administrador
Registro
9 Ago 2012
Mensajes
3.157
Reacciones (ptje)
55.166


Stolen.jpg




FICHA_TECNICA.png


TÍTULO ORIGINAL: Stolen
AÑO: 2012
DURACIÓN: 95 min.
PAÍS: USA
DIRECTOR: Simon West
GUIÓN: David Guggenheim
REPARTO: Nicolas Cage, Malin Akerman, Josh Lucas, Danny Huston, Mark Valley, Sami Gayle, M.C. Gainey, Marcus Lyle Brown, Michelle Torres, J.D. Evermore, Edrick Browne
PRODUCTORA: Nu Boyana Film Studios / SC Films International / Millennium Films
GÉNERO: Acción | Robos & Atracos
imdb-logo.png
http://www.imdb.com/title/tt1656186/



SINOPSIS.png


Will Montgomery (Nicolas Cage) es un veterano ladrón de bancos que, tras ser traicionado en un atraco, es condenado a 8 años de prisión. Cuando sale de la cárcel dedide dejar atrás su pasado criminal e intentar reconstruir su relación con su hija Allison. Pero, inesperadamente, Vincent (Josh Lucas), un antiguo compañero, secuestra a Allison y le exige a Will 10 millones de dólares a cambio de volver a verla con vida. Con sólo un día para conseguir el dinero, a Will sólo le queda confiar en su instinto y en su antigua compañera Riley (Malin Akerman) para dar un último gran golpe que le permita recuperar a su hija.




TRAILER.png






CAPTURAS.png


1.jpg


2.jpg


3.jpg


4.jpg


5.jpg


6.jpg


La pelicula NO tiene ninguna marca... solo colocamos el nombre de esta web en las capturas




DATOS_TECNICOS.png


Código:
General
Format                           : Matroska
Format version                   : Version 2
File size                        : 2.10 GiB
Duration                         : 1h 35mn
Overall bit rate                 : 3 130 Kbps
Movie name                       : www.club-hd.com
Encoded date                     : UTC 2012-10-12 00:53:53
Writing application              : mkvmerge v5.7.0 ('The Whirlwind') built on Jul  8 2012 20:08:51
Writing library                  : libebml v1.2.3 + libmatroska v1.3.0

Video
ID                               : 1
Format                           : AVC
Format/Info                      : Advanced Video Codec
Format profile                   : [email protected]
Format settings, CABAC           : Yes
Format settings, ReFrames        : 8 frames
Codec ID                         : V_MPEG4/ISO/AVC
Duration                         : 1h 35mn
Bit rate                         : 2 690 Kbps
Width                            : 1 280 pixels
Height                           : 720 pixels
Display aspect ratio             : 16:9
Frame rate                       : 24.000 fps
Color space                      : YUV
Chroma subsampling               : 4:2:0
Bit depth                        : 8 bits
Scan type                        : Progressive
Bits/(Pixel*Frame)               : 0.122
Stream size                      : 1.75 GiB (84%)
Title                            : www.club-hd.com
Writing library                  : x264 core 128 r2216 198a7ea
Language                         : English
Default                          : Yes
Forced                           : No

Audio
ID                               : 2
Format                           : AC-3
Format/Info                      : Audio Coding 3
Mode extension                   : CM (complete main)
Codec ID                         : A_AC3
Duration                         : 1h 35mn
Bit rate mode                    : Constant
Bit rate                         : 448 Kbps
Channel(s)                       : 6 channels
Channel positions                : Front: L C R, Side: L R, LFE
Sampling rate                    : 48.0 KHz
Bit depth                        : 16 bits
Compression mode                 : Lossy
Stream size                      : 307 MiB (14%)
Title                            : www.club-hd.com
Language                         : English
Default                          : Yes
Forced                           : No

Text
ID                               : 3
Format                           : UTF-8
Codec ID                         : S_TEXT/UTF8
Codec ID/Info                    : UTF-8 Plain Text
Language                         : Spanish
Default                          : Yes
Forced                           : No

Menu
00:00:00.000                     : en:Chapter 1
00:08:38.917                     : en:Chapter 2
00:15:28.083                     : en:Chapter 3
00:20:24.708                     : en:Chapter 4
00:26:46.083                     : en:Chapter 5
00:33:46.500                     : en:Chapter 6
00:43:51.083                     : en:Chapter 7
00:51:12.917                     : en:Chapter 8
00:59:44.417                     : en:Chapter 9
01:08:38.292                     : en:Chapter 10
01:18:27.917                     : en:Chapter 11
01:27:07.500                     : en:Chapter 12




Descarga.png



google-drive-vip.png


Tenemos TODO el material de Club-HD disponible por Mega, enlaces 100% activos y online hasta la fecha

Llévate tus cuentas Mega PRO III gratis con tu membresía VIP!
Todos los posts vivos con links de Mega.
Todo el material de Club-HD desbloqueado y sin publicidad.

Obtén más información sobre nuestras Membresías VIP




MEGA.jpg

Tenemos TODO el material de Club-HD disponible por Mega, enlaces 100% activos y online hasta la fecha

Llévate tus cuentas Mega PRO III gratis con tu membresía VIP!
Todos los posts vivos con links de Mega.
Todo el material de Club-HD desbloqueado y sin publicidad.

Obtén más información sobre nuestras Membresías VIP


UPLOADED.TO_BANNER.png

Para ver este contenido oculto, debes dar click en el botón"Like", o cualquiera de las otras reacciones:

Me Gusta Me Gusta, Me Encanta Me Encanta, Jaja Jaja, Wow Wow, Triste Triste, Molesto Molesto

 
Última edición:
cuando tendran en la pagina las siguientes peliculas que ya estan rondando por la red.....1.- expendables 2.......2.-magic mike......3.-to rome with love.....4.-Seeking a Friend for the End of the World
 
se me hace como la pelicula del mismo nicolas cage 60 segundos que por cierto ya esta incluida en la lista de pedidos
 
cuando tendran en la pagina las siguientes peliculas que ya estan rondando por la red.....1.- expendables 2.......2.-magic mike......3.-to rome with love.....4.-Seeking a Friend for the End of the World

expendables 2 salio hace algunos dias, si puedo la subo para mañana a la ultima hora o el sabado. Estos dias anduve sin tiempo para subir y responder algunos mensajes.
 
expendables 2 salio hace algunos dias, si puedo la subo para mañana a la ultima hora o el sabado. Estos dias anduve sin tiempo para subir y responder algunos mensajes.

excelente revolver entonces a esperar y espero que tambien subas las otras pelis que tmb te mencione....excelente trabajo el tuyo gracias y saludos
 
Volver