Street Fighter (1994) m-1080p Dual Latino-Inglés [Subt. Esp-Ing] (Acción. Ciencia ficción)

Maestro Revolver

Well-known member
Miembro del Staff
Administrador
Registro
9 Ago 2012
Mensajes
3.569
Reacciones
59.354
Puntos
113

Reputation:









TÍTULO ORIGINAL: Street Fighter
AÑO: 1994
DURACIÓN: 102 min.
PAÍS: USA
DIRECTOR: Steven E. de Souza
GUIÓN: Steven E. de Souza
REPARTO: Jean-Claude Van Damme, Raul Julia, Ming-Na Wen, Damian Chapa, Kylie Minogue, Simon Callow, Roshan Seth, Wes Studi, Grand L. Bush
PRODUCTORA: Universal Pictures / Capcom Entertainment
GÉNERO: Acción. Ciencia ficción | Artes marciales. Videojuego
http://www.imdb.com/title/tt0111301/





En una inexpugnable fortaleza un renegado señor de la guerra -Julia- matiene a 63 rehenes, a los que matará si no recibe un desorbitado rescate de 20.000 millones de dólares. El coronel Guile -Van Damme- y más de una docena de hombres -héroes multiétnicos- tratarán de localizar y liberar a los secuestrados... El guionista de "La jungla de Cristal" (Die Hard, 1988) debuta en la dirección con esta cinta de acción basada en un popular videojuego.
























La pelicula NO tiene ninguna marca... solo colocamos el nombre de esta web en las capturas






Código:
General
Format                           : Matroska
Format version                   : Version 2
File size                        : 3.78 GiB
Duration                         : 1h 41mn
Overall bit rate                 : 5 329 Kbps
Movie name                       : www.club-hd.com
Encoded date                     : UTC 2012-10-15 16:05:42
Writing application              : mkvmerge v5.7.0 ('The Whirlwind') built on Jul  8 2012 20:08:51
Writing library                  : libebml v1.2.3 + libmatroska v1.3.0

Video
ID                               : 1
Format                           : AVC
Format/Info                      : Advanced Video Codec
Format profile                   : High@L4.1
Format settings, CABAC           : Yes
Format settings, ReFrames        : 4 frames
Codec ID                         : V_MPEG4/ISO/AVC
Duration                         : 1h 41mn
Bit rate                         : 4 499 Kbps
Width                            : 1 920 pixels
Height                           : 800 pixels
Display aspect ratio             : 2.40:1
Frame rate                       : 23.976 fps
Color space                      : YUV
Chroma subsampling               : 4:2:0
Bit depth                        : 8 bits
Scan type                        : Progressive
Bits/(Pixel*Frame)               : 0.122
Stream size                      : 3.11 GiB (82%)
Title                            : www.club-hd.com
Writing library                  : x264 core 116 r2074 2641b9e
Language                         : English
Default                          : Yes
Forced                           : No

Audio #1
ID                               : 2
Format                           : AC-3
Format/Info                      : Audio Coding 3
Mode extension                   : CM (complete main)
Codec ID                         : A_AC3
Duration                         : 1h 41mn
Bit rate mode                    : Constant
Bit rate                         : 384 Kbps
Channel(s)                       : 6 channels
Channel positions                : Front: L C R, Side: L R, LFE
Sampling rate                    : 48.0 KHz
Bit depth                        : 16 bits
Compression mode                 : Lossy
Stream size                      : 279 MiB (7%)
Title                            : www.club-hd.com  >>  Latino
Language                         : Spanish
Default                          : Yes
Forced                           : No

Audio #2
ID                               : 3
Format                           : AC-3
Format/Info                      : Audio Coding 3
Mode extension                   : CM (complete main)
Codec ID                         : A_AC3
Duration                         : 1h 41mn
Bit rate mode                    : Constant
Bit rate                         : 448 Kbps
Channel(s)                       : 6 channels
Channel positions                : Front: L C R, Side: L R, LFE
Sampling rate                    : 48.0 KHz
Bit depth                        : 16 bits
Compression mode                 : Lossy
Stream size                      : 325 MiB (8%)
Title                            : www.club-hd.com  >>  Inglés
Language                         : English
Default                          : No
Forced                           : No

Text #1
ID                               : 4
Format                           : UTF-8
Codec ID                         : S_TEXT/UTF8
Codec ID/Info                    : UTF-8 Plain Text
Language                         : Spanish
Default                          : No
Forced                           : No

Text #2
ID                               : 5
Format                           : UTF-8
Codec ID                         : S_TEXT/UTF8
Codec ID/Info                    : UTF-8 Plain Text
Language                         : English
Default                          : No
Forced                           : No









Enlaces de Mega y Fireload solo disponibles para Miembros VIP

Compra tu Membresía VIP y apoya a Club-HD!

ATENCIÓN! Tenemos TODO el material de Club-HD disponible por Mega y Fireload, enlaces 100% activos y online hasta la fecha

Llévate tus cuentas Mega PRO II gratis con tu membresía VIP!
Todos los posts vivos con links de Mega y Fireload.
Todo el material de Club-HD desbloqueado y sin publicidad.

Click Aquí para más información.




Enlaces de Mega y Fireload solo disponibles para Miembros VIP

Compra tu Membresía VIP y apoya a Club-HD!

ATENCIÓN! Tenemos TODO el material de Club-HD disponible por Mega y Fireload, enlaces 100% activos y online hasta la fecha

Llévate tus cuentas Mega PRO II gratis con tu membresía VIP!
Todos los posts vivos con links de Mega y Fireload.
Todo el material de Club-HD desbloqueado y sin publicidad.

Click Aquí para más información.


Para ver este contenido oculto, debes dar click en una de las siguientes reacciones : Like Like, Love Love, Haha Haha, Wow Wow, Sad Sad, Angry Angry

 
Última edición:

christian

Well-known member
Registro
27 Ago 2012
Mensajes
4.149
Reacciones
252
Puntos
83

Reputation:

excelente! jeje no me imaginaba ver esta peli en HD, gracias por compartir!... Desc_g_
pregunta: van a subir esta peli en 720p?
 

Omar Herrera

Well-known member
Miembro del Staff
Súper Moderador
Registro
27 Ago 2012
Mensajes
1.234
Reacciones
325
Puntos
83
Edad
32
Ubicación
Managua

Reputation:

woooooooooooooooooooooow Excelente! esta pelicula la vi de chico, era adicto a este juego!
Desc_g_ Gracias Revolver! eres el mejor amigo :LXR:

excelente! jeje no me imaginaba ver esta peli en HD, gracias por compartir!... Desc_g_
pregunta: van a subir esta peli en 720p?

3.78 gib no esta nada mal para ser 1080p amigo, Aprovecha que es una ganga :rs:
 

christian

Well-known member
Registro
27 Ago 2012
Mensajes
4.149
Reacciones
252
Puntos
83

Reputation:

woooooooooooooooooooooow Excelente! esta pelicula la vi de chico, era adicto a este juego!
Desc_g_ Gracias Revolver! eres el mejor amigo :LXR:



3.78 gib no esta nada mal para ser 1080p amigo, Aprovecha que es una ganga :rs:

si, está en un peso excelente para la calidad :aplausos: pero por si acaso tenían en planes que la suban en m-720p preguntaba por ahí, para ahorrar un poquito más de espacio :sprloc: pero ya que no, ya está en lista de descarga! Mlevol0. Esta peli también recuerdo haberla visto de niño en cine en su momento! buenos recuerdos para la época del SNES
 

ketualpe

New member
Registro
9 Sep 2012
Mensajes
23
Reacciones
0
Puntos
0

Reputation:

es maometano no mas la pelicula pero muy buen aporte


muchas gracias
 

Usuarios Que Están Viendo Este Tema (Total: 1, Miembros: 0, Invitados: 1)

Arriba