Stuck in Love (2012) 720p BDRip Audio Inglés [Subt. Esp] (Romance. Comedia)

Maestro Revolver

Well-known member
Miembro del Staff
Administrador
Registro
9 Ago 2012
Mensajes
3.567








TÍTULO ORIGINAL: Stuck in Love (Writers)
AÑO: 2012
DURACIÓN: 96 min.
PAÍS: USA
DIRECTOR: Josh Boone
GUIÓN: Josh Boone
REPARTO: Greg Kinnear, Jennifer Connelly, Lily Collins, Logan Lerman, Kristen Bell, Rusty Joiner, Spencer Breslin, Stephen King, Liana Liberato, Nat Wolff, Patrick Schwarzenegger
PRODUCTORA: Informant Media / MICA Entertainment / Millennium Entertainment
GÉNERO: Romance. Comedia. Drama | Drama romántico. Comedia dramática
: http://www.imdb.com/title/tt2205697/






Años después de su divorcio, el veterano novelista Bill Borgens (Greg Kinnear) sigue obsesionado con Erica (Jennifer Connelly), la mujer que lo abandonó por otro hombre. A pesar de los esfuerzos de su vecina Tricia (Kristen Bell), él sólo tiene ojos para Erica. Cuando Bill descubre que su hija Samantha (Lily Collins) acaba de publicar su primera novela, se da cuenta de que él hace tiempo que no escribe. Al mismo tiempo, su hijo Rusty (Nat Wolff) intenta también encontrar su camino como escritor de ficción.
























La pelicula NO tiene ninguna marca... solo colocamos el nombre de esta web en las capturas






Código:
General
Format                                   : Matroska
Format version                           : Version 2
File size                                : 2.59 GiB
Duration                                 : 1h 36mn
Overall bit rate                         : 3 830 Kbps
Movie name                               : www.club-hd.com
Encoded date                             : UTC 2013-09-21 23:21:54
Writing application                      : mkvmerge v5.7.0 ('The Whirlwind') built on Jul  8 2012 20:08:51
Writing library                          : libebml v1.2.3 + libmatroska v1.3.0

Video
ID                                       : 1
Format                                   : AVC
Format/Info                              : Advanced Video Codec
Format profile                           : High@L4.1
Format settings, CABAC                   : Yes
Format settings, ReFrames                : 6 frames
Codec ID                                 : V_MPEG4/ISO/AVC
Duration                                 : 1h 36mn
Bit rate                                 : 3 306 Kbps
Width                                    : 1 280 pixels
Height                                   : 720 pixels
Display aspect ratio                     : 16:9
Frame rate mode                          : Constant
Frame rate                               : 23.976 fps
Color space                              : YUV
Chroma subsampling                       : 4:2:0
Bit depth                                : 8 bits
Scan type                                : Progressive
Bits/(Pixel*Frame)                       : 0.150
Stream size                              : 2.24 GiB (86%)
Title                                    : www.club-hd.com
Writing library                          : x264 core 133 r2334 a3ac64b
Language                                 : English
Default                                  : Yes
Forced                                   : No

Audio
ID                                       : 2
Format                                   : AC-3
Format/Info                              : Audio Coding 3
Mode extension                           : CM (complete main)
Format settings, Endianness              : Big
Codec ID                                 : A_AC3
Duration                                 : 1h 36mn
Bit rate mode                            : Constant
Bit rate                                 : 448 Kbps
Channel(s)                               : 6 channels
Channel positions                        : Front: L C R, Side: L R, LFE
Sampling rate                            : 48.0 KHz
Bit depth                                : 16 bits
Compression mode                         : Lossy
Stream size                              : 310 MiB (12%)
Title                                    : www.club-hd.com
Language                                 : English
Default                                  : Yes
Forced                                   : No

Text
ID                                       : 3
Format                                   : UTF-8
Codec ID                                 : S_TEXT/UTF8
Codec ID/Info                            : UTF-8 Plain Text
Title                                    : www.club-hd.com
Language                                 : Spanish
Default                                  : Yes
Forced                                   : No

Menu
00:00:00.000                             : en:00:00:00.000
00:07:22.275                             : en:00:07:22.275
00:16:54.305                             : en:00:16:54.305
00:26:52.694                             : en:00:26:52.694
00:34:54.968                             : en:00:34:54.968
00:41:26.859                             : en:00:41:26.859
00:50:32.196                             : en:00:50:32.196
00:57:48.632                             : en:00:57:48.632
01:08:03.663                             : en:01:08:03.663
01:15:57.303                             : en:01:15:57.303
01:25:54.608                             : en:01:25:54.608
01:32:44.684                             : en:01:32:44.684








Enlaces de Mega y Google Drive solo disponibles para Miembros VIP

Compra tu Membresía VIP y apoya a Club-HD!

ATENCIÓN! Tenemos TODO el material de Club-HD disponible por Mega y Google Drive, enlaces 100% activos y online hasta la fecha

Llévate tus cuentas Mega PRO III gratis con tu membresía VIP!
Todos los posts vivos con links de Mega y Google Drive.
Todo el material de Club-HD desbloqueado y sin publicidad.

Click Aquí para más información.


Para ver este contenido oculto, debes dar click en una de las siguientes reacciones : Like Like, Love Love, Haha Haha, Wow Wow, Sad Sad, Angry Angry

 
Última edición por un moderador:

Usuarios Que Están Viendo Este Tema (Total: 1, Miembros: 0, Invitados: 1)

Quién Leyó Este Tema (Total Miembros: 3)

Arriba