Super 8 (2011) m-1080p Dual Latino-Inglés [Subt. Esp-Ing] (Ciencia ficción. Aventura)

Maestro Revolver

Well-known member
Miembro del Staff
Administrador
Registro
9 Ago 2012
Mensajes
3.567








TÍTULO ORIGINAL: Super 8
AÑO: 2011
DURACIÓN: 112 min.
PAÍS: USA
DIRECTOR: J.J. Abrams
GUIÓN: J.J. Abrams
REPARTO: Joel Courtney, Riley Griffiths, Elle Fanning, Ryan Lee, Gabriel Basso, Zach Mills, Kyle Chandler, Ron Eldard, Noah Emmerich, David Gallagher, Glynn Turman, Amanda Michalka
PRODUCTORA: Amblin Entertainment / Bad Robot / Paramount Pictures / Relativity Media
GÉNERO: Ciencia ficción. Aventuras | Extraterrestres. Años 70. Adolescencia
: http://www.imdb.com/title/tt1650062/

PREMIOS: 2011: Critics Choice Awards: 4 nominaciones, incluyendo Mejor película de acción






Joe Lamb (Joel Courtney), un muchacho que vive en un pueblo de Ohio, ha perdido a su madre en un accidente y vive con su padre, que es policía (Kyle Chandler). Un verano, mientras rueda con sus amigos una película de zombis en Super 8, observa cómo una camioneta se estrella contra un tren de mercancías, provocando su descarrilamiento y un terrible accidente. A partir de ese momento cosas extrañas e inexplicables comienzan a suceder en el pueblo.
























La pelicula NO tiene ninguna marca... solo colocamos el nombre de esta web en las capturas






Código:
General
Format                                   : Matroska
Format version                           : Version 2
File size                                : 4.57 GiB
Duration                                 : 1h 51mn
Overall bit rate                         : 5 850 Kbps
Movie name                               : www.club-hd.com
Encoded date                             : UTC 2013-03-13 00:16:46
Writing application                      : mkvmerge v5.7.0 ('The Whirlwind') built on Jul  8 2012 20:08:51
Writing library                          : libebml v1.2.3 + libmatroska v1.3.0

Video
ID                                       : 1
Format                                   : AVC
Format/Info                              : Advanced Video Codec
Format profile                           : Main@L4.0
Format settings, CABAC                   : Yes
Format settings, ReFrames                : 4 frames
Codec ID                                 : V_MPEG4/ISO/AVC
Duration                                 : 1h 51mn
Bit rate                                 : 4 600 Kbps
Width                                    : 1 920 pixels
Height                                   : 1 080 pixels
Display aspect ratio                     : 16:9
Frame rate mode                          : Constant
Frame rate                               : 23.976 fps
Color space                              : YUV
Chroma subsampling                       : 4:2:0
Bit depth                                : 8 bits
Scan type                                : Progressive
Bits/(Pixel*Frame)                       : 0.093
Stream size                              : 3.48 GiB (76%)
Title                                    : www.club-hd.com
Writing library                          : x264 core 112
Language                                 : English
Default                                  : Yes
Forced                                   : No
Color primaries                          : BT.709
Transfer characteristics                 : BT.709
Matrix coefficients                      : BT.709

Audio #1
ID                                       : 2
Format                                   : AC-3
Format/Info                              : Audio Coding 3
Mode extension                           : CM (complete main)
Format settings, Endianness              : Big
Codec ID                                 : A_AC3
Duration                                 : 1h 51mn
Bit rate mode                            : Constant
Bit rate                                 : 640 Kbps
Channel(s)                               : 6 channels
Channel positions                        : Front: L C R, Side: L R, LFE
Sampling rate                            : 48.0 KHz
Bit depth                                : 16 bits
Compression mode                         : Lossy
Stream size                              : 512 MiB (11%)
Title                                    : www.club-hd.com  >>  Latino
Language                                 : Spanish
Default                                  : Yes
Forced                                   : No

Audio #2
ID                                       : 3
Format                                   : AC-3
Format/Info                              : Audio Coding 3
Mode extension                           : CM (complete main)
Format settings, Endianness              : Big
Codec ID                                 : A_AC3
Duration                                 : 1h 51mn
Bit rate mode                            : Constant
Bit rate                                 : 640 Kbps
Channel(s)                               : 6 channels
Channel positions                        : Front: L C R, Side: L R, LFE
Sampling rate                            : 48.0 KHz
Bit depth                                : 16 bits
Compression mode                         : Lossy
Stream size                              : 512 MiB (11%)
Title                                    : www.club-hd.com  >>  Inglés
Language                                 : English
Default                                  : No
Forced                                   : No

Text #1
ID                                       : 4
Format                                   : UTF-8
Codec ID                                 : S_TEXT/UTF8
Codec ID/Info                            : UTF-8 Plain Text
Language                                 : Spanish
Default                                  : No
Forced                                   : No

Text #2
ID                                       : 5
Format                                   : UTF-8
Codec ID                                 : S_TEXT/UTF8
Codec ID/Info                            : UTF-8 Plain Text
Language                                 : English
Default                                  : No
Forced                                   : No

Menu
00:00:00.000                             : en:Chapter 1
00:07:01.546                             : en:Chapter 2
00:11:33.275                             : en:Chapter 3
00:19:25.164                             : en:Chapter 4
00:26:43.518                             : en:Chapter 5
00:33:36.514                             : en:Chapter 6
00:40:30.594                             : en:Chapter 7
00:45:42.281                             : en:Chapter 8
00:51:57.114                             : en:Chapter 9
00:57:00.083                             : en:Chapter 10
01:02:24.365                             : en:Chapter 11
01:08:12.588                             : en:Chapter 12
01:13:30.906                             : en:Chapter 13
01:18:33.875                             : en:Chapter 14
01:25:31.334                             : en:Chapter 15
01:30:25.503                             : en:Chapter 16
01:38:20.352                             : en:Chapter 17
01:43:37.836                             : en:Chapter 18









Enlaces de Mega y Google Drive solo disponibles para Miembros VIP

Compra tu Membresía VIP y apoya a Club-HD!

ATENCIÓN! Tenemos TODO el material de Club-HD disponible por Mega y Google Drive, enlaces 100% activos y online hasta la fecha

Llévate tus cuentas Mega PRO III gratis con tu membresía VIP!
Todos los posts vivos con links de Mega y Google Drive.
Todo el material de Club-HD desbloqueado y sin publicidad.

Click Aquí para más información.




Enlaces de Mega y Google Drive solo disponibles para Miembros VIP

Compra tu Membresía VIP y apoya a Club-HD!

ATENCIÓN! Tenemos TODO el material de Club-HD disponible por Mega y Google Drive, enlaces 100% activos y online hasta la fecha

Llévate tus cuentas Mega PRO III gratis con tu membresía VIP!
Todos los posts vivos con links de Mega y Google Drive.
Todo el material de Club-HD desbloqueado y sin publicidad.

Click Aquí para más información.



Para ver este contenido oculto, debes dar click en una de las siguientes reacciones : Like Like, Love Love, Haha Haha, Wow Wow, Sad Sad, Angry Angry

 
Última edición:

Omar Herrera

Well-known member
Miembro del Staff
Súper Moderador
Miembro VIP
Registro
27 Ago 2012
Mensajes
1.236
Edad
33
Ubicación
Managua
Excelente Pelicula, llena de muchos efectos! mur recomendada para todos los que gustan de la ciencia Ficcion.
Gracias Revolver por esta gran pelicula! :dplgar:
 

nathan8

Well-known member
Registro
27 Ago 2012
Mensajes
1.767
Edad
32
la andube buscando en esta calidad., muchas graisas esta genial.
 

Usuarios Que Están Viendo Este Tema (Total: 1, Miembros: 0, Invitados: 1)

Quién Leyó Este Tema (Total Miembros: 1)

Arriba