Sword Art Online S01 (2012) 1080p FUNI WEB-DL Latino-Japonés [Subt.Esp] (Acción , Aventura , Fantasía , Romance)

-∞WKS∞-

Well-known member
Uploader
Registro
18 May 2021
Mensajes
299
Reacciones
2.905
Puntos
93

Reputation:





Sinopsis
En el año 2022, la realidad virtual ha progresado a pasos agigantados, y se lanza un enorme juego de rol en línea llamado Sword Art Online (SAO). Con la ayuda de la tecnología "NerveGear", los jugadores pueden controlar sus avatares dentro del juego usando nada más que sus propios pensamientos.


MEDIAINFO
Código:
General
Unique ID                                : 12089566339492436214037630872388958461 (0x9185DA3F0D9D16331B028BD776CF8FD)
Complete name                            : Sword.Art.Online.S01.1080p.FUNI.WEB-DL.AAC2.0.x264-WKS\Sword.Art.Online.S01E25.1080p.FUNI.WEB-DL.AAC2.0.x264-WKS.mkv
Format                                   : Matroska
Format version                           : Version 4
File size                                : 1.17 GiB
Duration                                 : 25 min 27 s
Overall bit rate                         : 6 585 kb/s
Movie name                               : WKS
Encoded date                             : UTC 2021-11-18 21:36:53
Writing application                      : mkvmerge v60.0.0 ('NiceMKV by WKS') 64-bit
Writing library                          : libebml v1.4.2 + libmatroska v1.6.4

Video
ID                                       : 1
Format                                   : AVC
Format/Info                              : Advanced Video Codec
Format profile                           : High@L4
Format settings                          : CABAC / 3 Ref Frames
Format settings, CABAC                   : Yes
Format settings, Reference frames        : 3 frames
Codec ID                                 : V_MPEG4/ISO/AVC
Duration                                 : 25 min 27 s
Bit rate                                 : 6 070 kb/s
Width                                    : 1 920 pixels
Height                                   : 1 080 pixels
Display aspect ratio                     : 16:9
Frame rate mode                          : Constant
Frame rate                               : 23.976 (24000/1001) FPS
Color space                              : YUV
Chroma subsampling                       : 4:2:0
Bit depth                                : 8 bits
Scan type                                : Progressive
Bits/(Pixel*Frame)                       : 0.122
Stream size                              : 1.08 GiB (92%)
Title                                    : [FUNI]
Default                                  : Yes
Forced                                   : No
Color range                              : Limited
Matrix coefficients                      : BT.709

Audio #1
ID                                       : 2
Format                                   : AAC LC
Format/Info                              : Advanced Audio Codec Low Complexity
Codec ID                                 : A_AAC-2
Duration                                 : 25 min 27 s
Bit rate                                 : 256 kb/s
Channel(s)                               : 2 channels
Channel layout                           : L R
Sampling rate                            : 48.0 kHz
Frame rate                               : 46.875 FPS (1024 SPF)
Compression mode                         : Lossy
Stream size                              : 46.6 MiB (4%)
Title                                    : 日本語
Language                                 : Japanese
Default                                  : Yes
Forced                                   : No

Audio #2
ID                                       : 3
Format                                   : AAC LC
Format/Info                              : Advanced Audio Codec Low Complexity
Codec ID                                 : A_AAC-2
Duration                                 : 25 min 27 s
Bit rate                                 : 256 kb/s
Channel(s)                               : 2 channels
Channel layout                           : L R
Sampling rate                            : 48.0 kHz
Frame rate                               : 46.875 FPS (1024 SPF)
Compression mode                         : Lossy
Stream size                              : 46.6 MiB (4%)
Title                                    : Español (Latinoamericano)
Language                                 : Spanish
Default                                  : Yes
Forced                                   : No

Text
ID                                       : 4
Format                                   : UTF-8
Codec ID                                 : S_TEXT/UTF8
Codec ID/Info                            : UTF-8 Plain Text
Duration                                 : 23 min 10 s
Bit rate                                 : 49 b/s
Count of elements                        : 270
Stream size                              : 8.45 KiB (0%)
Title                                    : Español (Latinoamericano)
Language                                 : Spanish
Default                                  : Yes
Forced                                   : No

CAPTURAS






(VIP)



Enlaces de Mega y Fireload solo disponibles para Miembros VIP

Compra tu Membresía VIP y apoya a Club-HD!

ATENCIÓN! Tenemos TODO el material de Club-HD disponible por Mega y Fireload, enlaces 100% activos y online hasta la fecha

Llévate tus cuentas Mega PRO II gratis con tu membresía VIP!
Todos los posts vivos con links de Mega y Fireload.
Todo el material de Club-HD desbloqueado y sin publicidad.

Click Aquí para más información.
(FREE)



Para ver este contenido oculto, debes dar click en una de las siguientes reacciones : Like Like, Love Love, Haha Haha, Wow Wow, Sad Sad, Angry Angry

CONTRASEÑA
Código:
No Tiene
 

Howl

Well-known member
Miembro VIP
Registro
28 Ago 2012
Mensajes
1.767
Reacciones
88
Puntos
48

Reputation:

salu2, gracias por el aporte, pero creo que el audio latino no corresponde , o no esta sincronizado :(
 

-∞WKS∞-

Well-known member
Uploader
Registro
18 May 2021
Mensajes
299
Reacciones
2.905
Puntos
93

Reputation:

salu2, gracias por el aporte, pero creo que el audio latino no corresponde , o no esta sincronizado :(

Error de Funimation :/ me di cuenta despues, Funimation en vez de arreglarlo lo empeoro esperare mañana
 
Última edición:

cripp

Well-known member
Registro
27 Ago 2012
Mensajes
9.683
Reacciones
845
Puntos
113

Reputation:

Gracias por compartir
 

Usuarios Que Están Viendo Este Tema (Total: 1, Miembros: 0, Invitados: 1)

Arriba