Sympathy For Lady Vengeance (2005) m-720p BDRip Audio Coreano [Subt. Esp] (Thriller)

Maestro Revolver

Well-known member
Miembro del Staff
Administrador
Registro
9 Ago 2012
Mensajes
3.567








TÍTULO ORIGINAL: Chinjeolhan geumjassi (Sympathy For Lady Vengeance)
AÑO: 2005
DURACIÓN: 112 min.
PAÍS: Corea del Sur
DIRECTOR: Park Chan-wook
GUIÓN: Park Chan-wook, Jeong Seo-Gyeong
REPARTO: Lee Young-ae, Choi Min-sik, Tony Barry, Anne Cordiner, Go Su-hee, Kim Bu-seon
PRODUCTORA: CJ Capital Investment / Centurion Investment / Ilshin Capital Investments / Korea Capital Investment / Moho Films / Samsung Venture Capital / TSJ Entertainment
GÉNERO: Thriller | Amistad. Drama carcelario. Crimen. Drama psicológico. Thriller psicológico. Asesinos en serie
: http://www.imdb.com/title/tt0451094/






Kum-ja ha pasado trece años en prisión acusada del secuestro y del asesinato de un niño de seis años. El crimen había conmocionado a la opinión pública tanto por su brutalidad como porque la asesina tenía tan solo veinte años. Una vez cumplida la pena, Kum-ja sólo desea vengarse. Última parte de la trilogía de la venganza de Chan-wook Park, tras "Sympathy For Mr. Vengeance" y "Oldboy".
























La pelicula NO tiene ninguna marca... solo colocamos el nombre de esta web en las capturas






Código:
General
Format                                   : Matroska
Format version                           : Version 2
File size                                : 2.60 GiB
Duration                                 : 1h 55mn
Overall bit rate                         : 3 235 Kbps
Movie name                               : www.club-hd.com
Encoded date                             : UTC 2013-05-18 23:41:39
Writing application                      : mkvmerge v5.7.0 ('The Whirlwind') built on Jul  8 2012 20:08:51
Writing library                          : libebml v1.2.3 + libmatroska v1.3.0

Video
ID                                       : 1
Format                                   : AVC
Format/Info                              : Advanced Video Codec
Format profile                           : High@L4.1
Format settings, CABAC                   : Yes
Format settings, ReFrames                : 9 frames
Codec ID                                 : V_MPEG4/ISO/AVC
Duration                                 : 1h 55mn
Bit rate                                 : 2 595 Kbps
Width                                    : 1 280 pixels
Height                                   : 558 pixels
Display aspect ratio                     : 2.25:1
Frame rate mode                          : Constant
Frame rate                               : 23.976 fps
Color space                              : YUV
Chroma subsampling                       : 4:2:0
Bit depth                                : 8 bits
Scan type                                : Progressive
Bits/(Pixel*Frame)                       : 0.152
Stream size                              : 2.04 GiB (78%)
Writing library                          : x264 core 124 r2197 69a0443
Language                                 : Korean
Default                                  : Yes
Forced                                   : No

Audio
ID                                       : 2
Format                                   : AC-3
Format/Info                              : Audio Coding 3
Mode extension                           : CM (complete main)
Format settings, Endianness              : Big
Codec ID                                 : A_AC3
Duration                                 : 1h 55mn
Bit rate mode                            : Constant
Bit rate                                 : 640 Kbps
Channel(s)                               : 6 channels
Channel positions                        : Front: L C R, Side: L R, LFE
Sampling rate                            : 48.0 KHz
Bit depth                                : 16 bits
Compression mode                         : Lossy
Stream size                              : 527 MiB (20%)
Language                                 : Korean
Default                                  : Yes
Forced                                   : No

Text
ID                                       : 3
Format                                   : UTF-8
Codec ID                                 : S_TEXT/UTF8
Codec ID/Info                            : UTF-8 Plain Text
Language                                 : Spanish
Default                                  : Yes
Forced                                   : No

Menu
00:00:00.000                             : en:Opening Credits
00:10:12.028                             : en:High Hopes
00:15:47.488                             : en:Stop Crying!
00:20:44.201                             : en:Changed
00:26:50.859                             : en:Hands of a Killer
00:34:13.259                             : en:Timing
00:41:51.050                             : en:Ms. Geum-Ja
00:50:39.911                             : en:Kind
00:59:56.801                             : en:Desperate Situation
01:07:24.040                             : en:Who?
01:19:57.918                             : en:Kidnap and Kill
01:24:45.288                             : en:Let's Do It!
01:32:41.514                             : en:Stories to Tell
01:39:15.783                             : en:Happy Birthday
01:46:10.781                             : en:Farewell...
01:51:39.109                             : en:End Credits








Enlaces de Mega y Google Drive solo disponibles para Miembros VIP

Compra tu Membresía VIP y apoya a Club-HD!

ATENCIÓN! Tenemos TODO el material de Club-HD disponible por Mega y Google Drive, enlaces 100% activos y online hasta la fecha

Llévate tus cuentas Mega PRO III gratis con tu membresía VIP!
Todos los posts vivos con links de Mega y Google Drive.
Todo el material de Club-HD desbloqueado y sin publicidad.

Click Aquí para más información.


Para ver este contenido oculto, debes dar click en una de las siguientes reacciones : Like Like, Love Love, Haha Haha, Wow Wow, Sad Sad, Angry Angry



 
Última edición por un moderador:

Usuarios Que Están Viendo Este Tema (Total: 1, Miembros: 0, Invitados: 1)

Quién Leyó Este Tema (Total Miembros: 3)

Arriba