Sympathy For Mr. Vengeance (2002) m-720p BDRip Audio Coreano [Subt. Esp] (Thriller. Drama)

Maestro Revolver

Well-known member
Miembro del Staff
Administrador
Registro
9 Ago 2012
Mensajes
3.567








TÍTULO ORIGINAL: Boksuneun naui geot (Sympathy For Mr. Vengeance)
AÑO: 2002
DURACIÓN: 129 min.
PAÍS: Corea del Sur
DIRECTOR: Park Chan-wook
GUIÓN: Park Chan-wook, Lee Jae-sun, Lee Mu-yeong, Lee Yong-jong
REPARTO: Song Kang-ho, Shin Ha-kyun, Du-na Bae, Lim Ji-Eun, Han Bo-bae, Kim Se-dong, Lee Dae-yeon
PRODUCTORA: CJ Entertainment / Studio Box
GÉNERO: Thriller. Drama | Crimen. Enfermedad. Terrorismo
: http://www.imdb.com/title/tt0310775/






Cuenta la historia de un sordomudo que busca desesperadamente 10 millones para comprar en el mercado negro un riñón para su hermana enferma. Primera parte de la trilogía de la venganza de Chan-wook Park, que completan "Oldboy" (2003) "Sympathy For Lady Vengeance" (2005).
























La pelicula NO tiene ninguna marca... solo colocamos el nombre de esta web en las capturas






Código:
General
Format                                   : Matroska
Format version                           : Version 2
File size                                : 2.80 GiB
Duration                                 : 2h 1mn
Overall bit rate                         : 3 312 Kbps
Movie name                               : www.club-hd.com
Encoded date                             : UTC 2013-05-18 22:20:45
Writing application                      : mkvmerge v5.7.0 ('The Whirlwind') built on Jul  8 2012 20:08:51
Writing library                          : libebml v1.2.3 + libmatroska v1.3.0

Video
ID                                       : 1
Format                                   : AVC
Format/Info                              : Advanced Video Codec
Format profile                           : High@L4.1
Format settings, CABAC                   : Yes
Format settings, ReFrames                : 9 frames
Codec ID                                 : V_MPEG4/ISO/AVC
Duration                                 : 2h 1mn
Bit rate                                 : 2 670 Kbps
Width                                    : 1 280 pixels
Height                                   : 558 pixels
Display aspect ratio                     : 2.25:1
Frame rate mode                          : Constant
Frame rate                               : 23.976 fps
Color space                              : YUV
Chroma subsampling                       : 4:2:0
Bit depth                                : 8 bits
Scan type                                : Progressive
Bits/(Pixel*Frame)                       : 0.156
Stream size                              : 2.20 GiB (79%)
Writing library                          : x264 core 124 r2197 69a0443
Language                                 : Korean
Default                                  : Yes
Forced                                   : No

Audio
ID                                       : 2
Format                                   : AC-3
Format/Info                              : Audio Coding 3
Mode extension                           : CM (complete main)
Format settings, Endianness              : Big
Codec ID                                 : A_AC3
Duration                                 : 2h 1mn
Bit rate mode                            : Constant
Bit rate                                 : 640 Kbps
Channel(s)                               : 6 channels
Channel positions                        : Front: L C R, Side: L R, LFE
Sampling rate                            : 48.0 KHz
Bit depth                                : 16 bits
Compression mode                         : Lossy
Stream size                              : 554 MiB (19%)
Language                                 : Korean
Default                                  : Yes
Forced                                   : No

Text
ID                                       : 3
Format                                   : UTF-8
Codec ID                                 : S_TEXT/UTF8
Codec ID/Info                            : UTF-8 Plain Text
Language                                 : Spanish
Default                                  : Yes
Forced                                   : No

Menu
00:00:00.000                             : en:I Am Going To Save You
00:08:20.208                             : en:Organs For Sale
00:15:12.703                             : en:Ten Million Won
00:22:04.072                             : en:Good Kidnappig
00:29:22.969                             : en:Daddy!
00:37:14.106                             : en:Jealous
00:45:00.114                             : en:Anybody Out There?
00:54:06.159                             : en:Provoked Anyone?
01:01:53.000                             : en:Deep Water
01:09:03.097                             : en:No Hope
01:15:15.469                             : en:Be Strong
01:21:08.196                             : en:Destroy!
01:27:39.295                             : en:We Made A Mistake
01:33:54.962                             : en:RAA
01:43:40.255                             : en:Good Guy
01:52:22.694                             : en:Closing Credits








Enlaces de Mega y Google Drive solo disponibles para Miembros VIP

Compra tu Membresía VIP y apoya a Club-HD!

ATENCIÓN! Tenemos TODO el material de Club-HD disponible por Mega y Google Drive, enlaces 100% activos y online hasta la fecha

Llévate tus cuentas Mega PRO III gratis con tu membresía VIP!
Todos los posts vivos con links de Mega y Google Drive.
Todo el material de Club-HD desbloqueado y sin publicidad.

Click Aquí para más información.


Para ver este contenido oculto, debes dar click en una de las siguientes reacciones : Like Like, Love Love, Haha Haha, Wow Wow, Sad Sad, Angry Angry



 
Última edición por un moderador:

sharklui

Well-known member
Miembro VIP
Registro
28 Ago 2012
Mensajes
1.026
Ubicación
The Matrix
:OHHH: un Monstruo Total, 3 en 4 minutos, eres el mejor y no dejas de sorprender:LXR:, muchas gracias por tu gran dedicacion a enriquecer esta privilegiada comunidad Club-HD con tus increibles aportes :aplausos:
 

Doctor Jason

New member
Súper Moderador
Registro
1 Sep 2012
Mensajes
2.398
Ubicación
Buenos Aires
Muchiiiiiisimas Gracias Revolver!!! Te pasastes con esta trilogía de venganza del director Chan-Wook Park, que ahora debutó en Hollywood con "Stoker" Lazos Perversos (2013).

PD: Me imagino que claudia1973 debe de estar chocha con esta trílogia, no? Saludos.
 

Usuarios Que Están Viendo Este Tema (Total: 1, Miembros: 0, Invitados: 1)

Quién Leyó Este Tema (Total Miembros: 2)

Arriba