• Buenos dias amigos del club. Les queremos avisar que ya recuperamos el acceso a las webs de las Membresías VIP y del Paste. Asi que ya pueden comprar sus membresías y descargar todos los estrenos nuevamente.

Taken 2 (2012) Extended 1080p BDRip Dual Latino-Inglés [Subt. Esp-Ing] (Thriller. Acción)

Maestro Revolver

Administrador
Registro
9 Ago 2012
Mensajes
3.157
Reacciones (ptje)
55.317


Taken-2-1080p.jpg




FICHA_TECNICA.png


TÍTULO ORIGINAL: Taken 2
AÑO: 2012
DURACIÓN: 91 min.
PAÍS: Francia
DIRECTOR: Olivier Megaton
GUIÓN: Luc Besson, Robert Mark Kamen
REPARTO: Liam Neeson, Maggie Grace, Luke Grimes, Famke Janssen, Rade Serbedzija, Leland Orser, Jon Gries
PRODUCTORA: Europa Corp.
GÉNERO: Thriller. Acción | Secuela
imdb-logo.png
: http://www.imdb.com/title/tt1397280/




SINOPSIS.png


Aunque ya está retirado, Bryan Mills (Liam Neeson) se ve obligado a utilizar todos sus recursos y habilidades de agente de la CIA para salvar tanto la vida de su mujer y de su hija como la suya propia. El padre de uno de los secuestradores albaneses que lo tuvieron en jaque en el primer film jura vengarse y aprovecha las vacaciones de la familia Mills en Estambul para llevar a cabo su plan. Una vez más parece que subestiman al ex agente de la CIA.




TRAILER.png






CAPTURAS.png


1.jpg


2.jpg


3.jpg


4.jpg


5.jpg


6.jpg


La pelicula NO tiene ninguna marca... solo colocamos el nombre de esta web en las capturas




DATOS_TECNICOS.png


Código:
General
Format                                   : Matroska
Format version                           : Version 2
File size                                : 8.39 GiB
Duration                                 : 1h 38mn
Overall bit rate                         : 12.2 Mbps
Movie name                               : www.club-hd.com
Encoded date                             : UTC 2013-01-05 03:03:23
Writing application                      : mkvmerge v5.7.0 ('The Whirlwind') built on Jul  8 2012 20:08:51
Writing library                          : libebml v1.2.3 + libmatroska v1.3.0

Video
ID                                       : 1
Format                                   : AVC
Format/Info                              : Advanced Video Codec
Format profile                           : [email protected]
Format settings, CABAC                   : Yes
Format settings, ReFrames                : 5 frames
Codec ID                                 : V_MPEG4/ISO/AVC
Duration                                 : 1h 38mn
Bit rate                                 : 9 620 Kbps
Width                                    : 1 920 pixels
Height                                   : 808 pixels
Display aspect ratio                     : 2.40:1
Frame rate mode                          : Constant
Frame rate                               : 23.976 fps
Color space                              : YUV
Chroma subsampling                       : 4:2:0
Bit depth                                : 8 bits
Scan type                                : Progressive
Bits/(Pixel*Frame)                       : 0.259
Stream size                              : 6.44 GiB (77%)
Title                                    : www.club-hd.com
Writing library                          : x264 core 129 r2230kMod 1cffe9f
Language                                 : English
Default                                  : Yes
Forced                                   : No

Audio #1
ID                                       : 2
Format                                   : AC-3
Format/Info                              : Audio Coding 3
Mode extension                           : CM (complete main)
Format settings, Endianness              : Big
Codec ID                                 : A_AC3
Duration                                 : 1h 38mn
Bit rate mode                            : Constant
Bit rate                                 : 448 Kbps
Channel(s)                               : 6 channels
Channel positions                        : Front: L C R, Side: L R, LFE
Sampling rate                            : 48.0 KHz
Bit depth                                : 16 bits
Compression mode                         : Lossy
Stream size                              : 315 MiB (4%)
Title                                    : www.club-hd.com  >>  Latino AC3 5.1
Language                                 : Spanish
Default                                  : Yes
Forced                                   : No

Audio #2
ID                                       : 3
Format                                   : AC-3
Format/Info                              : Audio Coding 3
Mode extension                           : CM (complete main)
Format settings, Endianness              : Big
Codec ID                                 : A_AC3
Duration                                 : 1h 38mn
Bit rate mode                            : Constant
Bit rate                                 : 640 Kbps
Channel(s)                               : 6 channels
Channel positions                        : Front: L C R, Side: L R, LFE
Sampling rate                            : 48.0 KHz
Bit depth                                : 16 bits
Compression mode                         : Lossy
Stream size                              : 450 MiB (5%)
Title                                    : www.club-hd.com  >>  Inglés AC3 5.1
Language                                 : English
Default                                  : No
Forced                                   : No

Audio #3
ID                                       : 4
Format                                   : DTS
Format/Info                              : Digital Theater Systems
Mode                                     : 16
Format settings, Endianness              : Big
Codec ID                                 : A_DTS
Duration                                 : 1h 38mn
Bit rate mode                            : Constant
Bit rate                                 : 1 509 Kbps
Channel(s)                               : 6 channels
Channel positions                        : Front: L C R, Side: L R, LFE
Sampling rate                            : 48.0 KHz
Bit depth                                : 24 bits
Compression mode                         : Lossy
Stream size                              : 1.04 GiB (12%)
Title                                    : www.club-hd.com  >>  Inglés DTS 5.1
Language                                 : English
Default                                  : No
Forced                                   : No

Text #1
ID                                       : 5
Format                                   : UTF-8
Codec ID                                 : S_TEXT/UTF8
Codec ID/Info                            : UTF-8 Plain Text
Language                                 : Spanish
Default                                  : No
Forced                                   : No

Text #2
ID                                       : 6
Format                                   : UTF-8
Codec ID                                 : S_TEXT/UTF8
Codec ID/Info                            : UTF-8 Plain Text
Language                                 : English
Default                                  : No
Forced                                   : No

Menu
00:00:00.000                             : en:00:00:00.000
00:04:18.300                             : en:00:04:18.300
00:07:24.694                             : en:00:07:24.694
00:12:00.219                             : en:00:12:00.219
00:14:37.418                             : en:00:14:37.418
00:17:53.698                             : en:00:17:53.698
00:21:34.835                             : en:00:21:34.835
00:24:44.149                             : en:00:24:44.149
00:27:48.792                             : en:00:27:48.792
00:33:00.812                             : en:00:33:00.812
00:37:41.134                             : en:00:37:41.134
00:41:00.750                             : en:00:41:00.750
00:44:25.079                             : en:00:44:25.079
00:48:50.427                             : en:00:48:50.427
00:54:17.129                             : en:00:54:17.129
01:00:45.517                             : en:01:00:45.517
01:04:28.281                             : en:01:04:28.281
01:08:47.915                             : en:01:08:47.915
01:11:13.603                             : en:01:11:13.603
01:15:43.956                             : en:01:15:43.956
01:21:35.057                             : en:01:21:35.057
01:25:39.009                             : en:01:25:39.009
01:29:17.727                             : en:01:29:17.727
01:32:13.736                             : en:01:32:13.736




Descarga.png



MEGA.jpg

Tenemos TODO el material de Club-HD disponible por Mega, enlaces 100% activos y online hasta la fecha

Llévate tus cuentas Mega PRO III gratis con tu membresía VIP!
Todos los posts vivos con links de Mega.
Todo el material de Club-HD desbloqueado y sin publicidad.

Obtén más información sobre nuestras Membresías VIP



up.jpg

Para ver este contenido oculto, debes dar click en el botón"Like", o cualquiera de las otras reacciones:

Me Gusta Me Gusta, Me Encanta Me Encanta, Jaja Jaja, Wow Wow, Triste Triste, Molesto Molesto
 
Última edición por un moderador:
Ya había bajado la version WEB-DL pero me llevo esta y borro la otra....GRACIAAASS ! !
 
gracias revolver por esta version extendida, aunque sea solo unos minutos pero tendre que volverla a ver
 
Volver