Tarja Turunen: Act 1 (2012) 1080p BDRip [AC3 5.1] [DTS] (Concierto)

Max

Admin

Administrador
Registro
8 Ago 2012
Mensajes
6.333
Reacciones (ptje)
27.010

Tarja_Turunen_Act_1_POSTER.jpg





SINOPSIS.png


"Act 1" es el primer material en vivo de la soprano finlandesa, ex cantante de Nightwish, Tarja Turunen. A fines de marzo del 2012 grabaron dos conciertos con 10 cámaras HD en el Teatro El Círculo en Rosario, Argentina. La lista de canciones consiste en una combinación de sus 2 discos solistas, el clásico de Nightwish Nemo y covers de Andrew Lloyd Webber, Gary Moore y Whitesnake, además de algunos extras.




LISTA_DE_TEMAS.png


01. If You Believe
02. Anteroom Of Death
03. My Little Phoenix
04. Dark Star
05. Naiad
06. Falling Awake
07. I Walk Alone
08. Orpheus Hallucination / Orpheus In The Underworld
09. Little Lies (Band Jam)
10. Little Lies
11. Into The Sun
12. Nemo

13. Acoustic Set:
  • Rivers Of Lust
  • Minor Heaven
  • Montañas De Silencio
  • Sing For Me
  • I Feel Immortal

14. Never Enough
15. In For A Kill
16. Toccata And Fugue D-minor (BWV 565) / The Phantom Of The Opera
17. Die Alive
18. Until My Last Breath
19. Over The Hills And Far Away




YOUTUBE_LOGO.png






CAPTURAS.png


Tarja_Turunen_Act_1_CAPTURA-1.jpg


Tarja_Turunen_Act_1_CAPTURA-2.jpg


Tarja_Turunen_Act_1_CAPTURA-3.jpg


Tarja_Turunen_Act_1_CAPTURA-4.jpg


Tarja_Turunen_Act_1_CAPTURA-5.jpg


Tarja_Turunen_Act_1_CAPTURA-6.jpg





DATOS_TECNICOS.png


Código:
General
Complete name                            : Tarja Turunen - Act 1 (2012) 1080p BDRip [AC3 5.1] [DTS].mkv
Format                                   : Matroska
Format version                           : Version 2
File size                                : 8.14 GiB
Duration                                 : 1h 48mn
Overall bit rate                         : 10.8 Mbps
Movie name                               : www.club-hd.com --> Tarja Turunen: Act 1 (2012) 1080p BDRip [AC3 5.1] [DTS]
Encoded date                             : UTC 2013-12-10 18:07:21
Writing application                      : mkvmerge v5.8.0 ('No Sleep / Pillow') built on Sep  2 2012 15:37:04
Writing library                          : libebml v1.2.3 + libmatroska v1.3.0

Video
ID                                       : 1
Format                                   : AVC
Format/Info                              : Advanced Video Codec
Format profile                           : [email protected]
Format settings, CABAC                   : Yes
Format settings, ReFrames                : 4 frames
Muxing mode                              : Header stripping
Codec ID                                 : V_MPEG4/ISO/AVC
Duration                                 : 1h 48mn
Bit rate                                 : 8 603 Kbps
Width                                    : 1 920 pixels
Height                                   : 1 080 pixels
Display aspect ratio                     : 16:9
Frame rate mode                          : Constant
Frame rate                               : 25.000 fps
Color space                              : YUV
Chroma subsampling                       : 4:2:0
Bit depth                                : 8 bits
Scan type                                : Progressive
Bits/(Pixel*Frame)                       : 0.166
Stream size                              : 6.35 GiB (78%)
Title                                    : Tarja Turunen: Act 1 (2012) 1080p BDRip [AC3 5.1] [DTS]
Writing library                          : x264 core 125 r2208 d9d2288
Encoding settings                        : cabac=1 / ref=4 / deblock=1:0:0 / analyse=0x3:0x133 / me=umh / subme=7 / psy=1 / psy_rd=1.00:0.00 / mixed_ref=1 / me_range=16 / chroma_me=1 / trellis=1 / 8x8dct=1 / cqm=0 / deadzone=21,11 / fast_pskip=0 / chroma_qp_offset=-2 / threads=18 / lookahead_threads=3 / sliced_threads=0 / nr=0 / decimate=1 / interlaced=0 / bluray_compat=0 / constrained_intra=0 / bframes=3 / b_pyramid=2 / b_adapt=1 / b_bias=0 / direct=1 / weightb=1 / open_gop=0 / weightp=2 / keyint=250 / keyint_min=25 / scenecut=40 / intra_refresh=0 / rc_lookahead=40 / rc=2pass / mbtree=1 / bitrate=8603 / ratetol=1.0 / qcomp=0.60 / qpmin=10 / qpmax=51 / qpstep=4 / cplxblur=20.0 / qblur=0.5 / ip_ratio=1.40 / aq=1:1.00
Language                                 : English
Default                                  : Yes
Forced                                   : No

Audio #1
ID                                       : 2
Format                                   : AC-3
Format/Info                              : Audio Coding 3
Mode extension                           : CM (complete main)
Format settings, Endianness              : Big
Muxing mode                              : Header stripping
Codec ID                                 : A_AC3
Duration                                 : 1h 48mn
Bit rate mode                            : Constant
Bit rate                                 : 640 Kbps
Channel(s)                               : 6 channels
Channel positions                        : Front: L C R, Side: L R, LFE
Sampling rate                            : 48.0 KHz
Bit depth                                : 16 bits
Compression mode                         : Lossy
Stream size                              : 496 MiB (6%)
Title                                    : Tarja Turunen: Act 1 (2012) - Inglés AC3 5.1
Language                                 : English
Default                                  : Yes
Forced                                   : No

Audio #2
ID                                       : 3
Format                                   : DTS
Format/Info                              : Digital Theater Systems
Mode                                     : 16
Format settings, Endianness              : Big
Muxing mode                              : Header stripping
Codec ID                                 : A_DTS
Duration                                 : 1h 48mn
Bit rate mode                            : Constant
Bit rate                                 : 1 509 Kbps
Channel(s)                               : 6 channels
Channel positions                        : Front: L C R, Side: L R, LFE
Sampling rate                            : 48.0 KHz
Bit depth                                : 24 bits
Compression mode                         : Lossy
Stream size                              : 1.14 GiB (14%)
Title                                    : Tarja Turunen: Act 1 (2012) - Inglés DTS 5.1
Language                                 : English
Default                                  : No
Forced                                   : No

Menu
00:00:00.000                             : en:00:00:00.000
00:04:01.040                             : en:00:04:01.040
00:08:53.920                             : en:00:08:53.920
00:13:41.680                             : en:00:13:41.680
00:18:14.360                             : en:00:18:14.360
00:25:40.000                             : en:00:25:40.000
00:31:36.400                             : en:00:31:36.400
00:35:59.600                             : en:00:35:59.600
00:42:36.200                             : en:00:42:36.200
00:44:50.880                             : en:00:44:50.880
00:50:09.920                             : en:00:50:09.920
00:54:55.320                             : en:00:54:55.320
00:59:57.920                             : en:00:59:57.920
01:10:49.480                             : en:01:10:49.480
01:15:53.280                             : en:01:15:53.280
01:21:19.920                             : en:01:21:19.920
01:28:23.760                             : en:01:28:23.760
01:33:29.000                             : en:01:33:29.000
01:40:03.960                             : en:01:40:03.960
01:41:13.440                             : en:01:41:13.440




DESCARGA.png



MEGA.jpg

Tenemos TODO el material de Club-HD disponible por Mega, enlaces 100% activos y online hasta la fecha

Llévate tus cuentas Mega PRO III gratis con tu membresía VIP!
Todos los posts vivos con links de Mega.
Todo el material de Club-HD desbloqueado y sin publicidad.

Obtén más información sobre nuestras Membresías VIP



UPLOADED_BANNER.png

Para ver este contenido oculto, debes dar click en el botón"Like", o cualquiera de las otras reacciones:

Me Gusta Me Gusta, Me Encanta Me Encanta, Jaja Jaja, Wow Wow, Triste Triste, Molesto Molesto
 
Última edición:
Desc_g_

Excelente Max!!! Muchas Gracias!!!

Me lo llevo por mi amada Tarja Turunen l0ve2l0ve2l0ve2l0ve2 S_T1

Saludos :D


PD: Apuesto a que otra vez alguien escribirá en su comentario "Gracias Revolver" :crcjd:
 
Volver