Taxi Driver (1976) 720p BDRip Dual Latino-Inglés [Subt. Esp] (Drama)

Maestro Revolver

Administrador
Registro
9 Ago 2012
Mensajes
3.157
Reacciones (ptje)
54.925



TaxiDriver.jpg




FichaTecnica.jpg


TÍTULO ORIGINAL: Taxi Driver
AÑO: 1976
DURACIÓN: 113 min.
PAÍS: USA
DIRECTOR: Martin Scorsese
GUIÓN: Bernard Herrmann
REPARTO: Robert De Niro, Cybill Shepherd, Jodie Foster, Albert Brooks, Harvey Keitel, Peter Boyle, Leonard Harris, Martin Scorsese, Joe Spinell
PRODUCTORA: Columbia Pictures
GÉNERO: Drama | Prostitución. Crimen. Película de culto
imdb-logo.png
: http://www.imdb.com/title/tt0075314/

Premios: 1976: 4 nominaciones al Oscar: Película, Actor (De Niro), Secundaria (Foster), Música.
1976: Festival de Cannes: Palma de Oro - mejor película
1976: 2 nominaciones al Globo de Oro: Actor en drama (De Niro), Guión
1976: 3 premios BAFTA: Secundaria (Foster), Revelación (Foster), Música
1976: Círculo de críticos de Nueva York: Mejor actor (De Niro)




Sinopsis.jpg


Para sobrellevar el insomnio crónico que sufre desde su regreso de Vietnam, Travis Bickle (Robert De Niro) trabaja como taxista nocturno en Nueva York. Es un hombre poco sociable que apenas tiene contacto con los demás, se pasa los días en los cines para adultos y vive obesionado con Betsy (Cybill Shepherd), una atractiva rubia que trabaja como voluntaria en una campaña política. Tras estropear su incipiente relación con Betsy, Travis no puede menos que seguir observando cómo la violencia, la sordidez y la desolación se adueñan de la ciudad. Y un día decide pasar a la acción.




Trailer.jpg






Capturas.jpg


1.jpg


2.jpg


3.jpg


4.jpg


5.jpg


6.jpg


La pelicula NO tiene ninguna marca... solo colocamos el nombre de esta web en las capturas




MediaInfo.jpg


Código:
General
Format                                   : Matroska
Format version                           : Version 2
File size                                : 3.40 GiB
Duration                                 : 1h 53mn
Overall bit rate                         : 4 281 Kbps
Movie name                               : www.club-hd.com
Encoded date                             : UTC 2013-08-16 21:59:02
Writing application                      : mkvmerge v5.7.0 ('The Whirlwind') built on Jul  8 2012 20:08:51
Writing library                          : libebml v1.2.3 + libmatroska v1.3.0

Video
ID                                       : 1
Format                                   : AVC
Format/Info                              : Advanced Video Codec
Format profile                           : [email protected]
Format settings, CABAC                   : Yes
Format settings, ReFrames                : 6 frames
Codec ID                                 : V_MPEG4/ISO/AVC
Duration                                 : 1h 53mn
Bit rate                                 : 3 000 Kbps
Width                                    : 1 280 pixels
Height                                   : 690 pixels
Display aspect ratio                     : 1.85:1
Frame rate mode                          : Constant
Frame rate                               : 23.976 fps
Color space                              : YUV
Chroma subsampling                       : 4:2:0
Bit depth                                : 8 bits
Scan type                                : Progressive
Bits/(Pixel*Frame)                       : 0.142
Stream size                              : 2.32 GiB (68%)
Title                                    : www.club-hd.com
Writing library                          : x264 core 130 r2273 b3065e6
Language                                 : English
Default                                  : Yes
Forced                                   : No

Audio #1
ID                                       : 2
Format                                   : AC-3
Format/Info                              : Audio Coding 3
Mode extension                           : CM (complete main)
Format settings, Endianness              : Big
Codec ID                                 : A_AC3
Duration                                 : 1h 53mn
Bit rate mode                            : Constant
Bit rate                                 : 640 Kbps
Channel(s)                               : 6 channels
Channel positions                        : Front: L C R, Side: L R, LFE
Sampling rate                            : 48.0 KHz
Bit depth                                : 16 bits
Compression mode                         : Lossy
Stream size                              : 521 MiB (15%)
Title                                    : www.club-hd.com > Latino
Language                                 : Spanish
Default                                  : Yes
Forced                                   : No

Audio #2
ID                                       : 3
Format                                   : AC-3
Format/Info                              : Audio Coding 3
Mode extension                           : CM (complete main)
Format settings, Endianness              : Big
Codec ID                                 : A_AC3
Duration                                 : 1h 53mn
Bit rate mode                            : Constant
Bit rate                                 : 640 Kbps
Channel(s)                               : 6 channels
Channel positions                        : Front: L C R, Side: L R, LFE
Sampling rate                            : 48.0 KHz
Bit depth                                : 16 bits
Compression mode                         : Lossy
Stream size                              : 521 MiB (15%)
Title                                    : www.club-hd.com > Inglés
Language                                 : English
Default                                  : No
Forced                                   : No

Text
ID                                       : 4
Format                                   : UTF-8
Codec ID                                 : S_TEXT/UTF8
Codec ID/Info                            : UTF-8 Plain Text
Language                                 : Spanish
Default                                  : No
Forced                                   : No

Menu
00:00:00.000                             : en:00:00:00.000
00:10:59.033                             : en:00:10:59.033
00:20:05.037                             : en:00:20:05.037
00:28:21.033                             : en:00:28:21.033
00:33:12.199                             : en:00:33:12.199
00:40:11.576                             : en:00:40:11.576
00:44:03.641                             : en:00:44:03.641
00:51:42.141                             : en:00:51:42.141
01:01:10.542                             : en:01:01:10.542
01:08:11.796                             : en:01:08:11.796
01:14:49.026                             : en:01:14:49.026
01:24:46.039                             : en:01:24:46.039
01:29:42.752                             : en:01:29:42.752
01:34:11.980                             : en:01:34:11.980
01:38:02.418                             : en:01:38:02.418
01:45:57.893                             : en:01:45:57.893




CONTRASE%C3%91A-FINAL.png



Código:
www.club-hd.com




DESCARGA-FINAL.png



Todos los links son Intercambiables!


MEGA-BANNER.png

Tenemos TODO el material de Club-HD disponible por Mega, enlaces 100% activos y online hasta la fecha

Llévate tus cuentas Mega PRO III gratis con tu membresía VIP!
Todos los posts vivos con links de Mega.
Todo el material de Club-HD desbloqueado y sin publicidad.

Obtén más información sobre nuestras Membresías VIP



UPLOADED_BANNER.png

Para ver este contenido oculto, debes dar click en el botón"Like", o cualquiera de las otras reacciones:

Me Gusta Me Gusta, Me Encanta Me Encanta, Jaja Jaja, Wow Wow, Triste Triste, Molesto Molesto
 
Última edición por un moderador:
:OHHH: :OHHH: 1976, jamás había visto a Robert De Niro tan joven
Habrá que ver si desde tan jovencito era tan bueno, como el monstruo de la actuación que es ahora.

MIL GRACIAS Revolver por traernos esta reliquia :LXR::LXR::LXR::LXR:
Desc_g_
 
Última edición:
Volver