Tekken (2010) 1080p BDRip Dual Latino-Inglés [Subt. Esp] (Acción. Ciencia ficción. Artes marciales)

Max

Admin

Administrador
Registro
8 Ago 2012
Mensajes
6.167
Reacciones (ptje)
26.845

Tekken_POSTER.jpg



Título original: Tekken
Año: 2010
Duración: 92 min.
País: Japón
Director: Dwight H. Little
Guión: Alan B. McElroy, Michael Colleary, Mike Werb
Música: John Hunter
Fotografía: Gina La Piana
Reparto: Jon Foo, Cary-Hiroyuki Tagawa, Ian Anthony Dale, Kelly Overton, Luke Goss, Cung Le, Gary Daniels, Candice Hillebrand, Marian Zapico, Darin Henson, Anton Kasabov, Tamlyn Tomita, Ian Anthony Dale, Nathan Jones, Lateef Crowder, Jae Hee, Gary Ray Stearns, Roger Huerta, David Pitt, Michael Showers, Mircea Monroe
Productora: Coproducción EEUU-Japón; Crystal Sky Pictures / GAGA / Namco
Género: Acción. Ciencia ficción | Artes marciales. Videojuego

IMDb.png
http://www.imdb.com/title/tt0411951/




SINOPSIS.png


En el año 2039, el mundo está dominado por grandes corporaciones. Una de ellas es la Mishima Zaibatsu, dirigida por Heihachi Mishima, que realiza periódicamente el Iron First Tournament, un torneo de lucha a nivel mundial. El protagonista es el joven Jin Kazama, un luchador callejero que se apunta al torneo para vengar la muerte de su madre, asesinada por Heihachi. Acompañado por su maestro Lucas, deberá hacer frente a varios desafíos para llegar a la meta. Adaptación libre del videojuego de Namco "Tekken".




YOUTUBE_LOGO.png






CAPTURAS.png


Tekken_CAPTURA-1.jpg


Tekken_CAPTURA-2.jpg


Tekken_CAPTURA-3.jpg


Tekken_CAPTURA-4.jpg


Tekken_CAPTURA-5.jpg


Tekken_CAPTURA-6.jpg


Tekken_CAPTURA-7.jpg


Tekken_CAPTURA-8.jpg


Tekken_CAPTURA-9.jpg


Tekken_CAPTURA-10.jpg


Tekken_CAPTURA-11.jpg





DATOS_TECNICOS.png


Código:
General
Complete name                            : Tekken (2010) 1080p BDRip Dual Latino-Inglés [Subt. Esp].mkv
Format                                   : Matroska
Format version                           : Version 4 / Version 2
File size                                : 7.27 GiB
Duration                                 : 1h 31mn
Overall bit rate                         : 11.4 Mbps
Movie name                               : www.club-hd.com --> Tekken (2010) 1080p BDRip Dual Latino-Inglés [Subt. Esp]
Encoded date                             : UTC 2014-07-15 13:27:16
Writing application                      : mkvmerge v6.8.0 ('Theme for Great Cities') 64bit built on Mar  2 2014 21:34:26
Writing library                          : libebml v1.3.0 + libmatroska v1.4.1

Video
ID                                       : 1
Format                                   : AVC
Format/Info                              : Advanced Video Codec
Format profile                           : [email protected]
Format settings, CABAC                   : Yes
Format settings, ReFrames                : 5 frames
Codec ID                                 : V_MPEG4/ISO/AVC
Duration                                 : 1h 31mn
Bit rate                                 : 8 772 Kbps
Width                                    : 1 920 pixels
Height                                   : 816 pixels
Display aspect ratio                     : 2.35:1
Frame rate mode                          : Constant
Frame rate                               : 23.976 fps
Color space                              : YUV
Chroma subsampling                       : 4:2:0
Bit depth                                : 8 bits
Scan type                                : Progressive
Bits/(Pixel*Frame)                       : 0.234
Stream size                              : 5.45 GiB (75%)
Title                                    : www.club-hd.com --> Tekken (2010) 1080p BDRip Dual Latino-Inglés [Subt. Esp]
Writing library                          : x264 core 104 r1703 cd21d05
Encoding settings                        : cabac=1 / ref=5 / deblock=1:-1:-1 / analyse=0x3:0x113 / me=umh / subme=7 / psy=1 / psy_rd=1.00:0.00 / mixed_ref=1 / me_range=16 / chroma_me=1 / trellis=1 / 8x8dct=1 / cqm=0 / deadzone=21,11 / fast_pskip=1 / chroma_qp_offset=-2 / threads=12 / sliced_threads=0 / nr=0 / decimate=1 / interlaced=0 / constrained_intra=0 / bframes=3 / b_pyramid=2 / b_adapt=2 / b_bias=0 / direct=3 / weightb=1 / open_gop=0 / weightp=2 / keyint=250 / keyint_min=23 / scenecut=40 / intra_refresh=0 / rc_lookahead=40 / rc=2pass / mbtree=1 / bitrate=8772 / ratetol=1.0 / qcomp=0.60 / qpmin=10 / qpmax=51 / qpstep=4 / cplxblur=20.0 / qblur=0.5 / vbv_maxrate=50000 / vbv_bufsize=50000 / ip_ratio=1.40 / aq=1:1.00 / nal_hrd=none
Language                                 : English
Default                                  : Yes
Forced                                   : No

Audio #1
ID                                       : 2
Format                                   : AC-3
Format/Info                              : Audio Coding 3
Mode extension                           : CM (complete main)
Format settings, Endianness              : Big
Codec ID                                 : A_AC3
Duration                                 : 1h 31mn
Bit rate mode                            : Constant
Bit rate                                 : 224 Kbps
Channel(s)                               : 2 channels
Channel positions                        : Front: L R
Sampling rate                            : 48.0 KHz
Bit depth                                : 16 bits
Compression mode                         : Lossy
Stream size                              : 146 MiB (2%)
Title                                    : Tekken (2010) - Español Latino AC3 2.0
Language                                 : Spanish
Default                                  : Yes
Forced                                   : No

Audio #2
ID                                       : 3
Format                                   : AC-3
Format/Info                              : Audio Coding 3
Mode extension                           : CM (complete main)
Format settings, Endianness              : Big
Codec ID                                 : A_AC3
Duration                                 : 1h 31mn
Bit rate mode                            : Constant
Bit rate                                 : 640 Kbps
Channel(s)                               : 6 channels
Channel positions                        : Front: L C R, Side: L R, LFE
Sampling rate                            : 48.0 KHz
Bit depth                                : 16 bits
Compression mode                         : Lossy
Stream size                              : 418 MiB (6%)
Title                                    : Tekken (2010) - Inglés AC3 5.1
Language                                 : English
Default                                  : No
Forced                                   : No

Audio #3
ID                                       : 4
Format                                   : AC-3
Format/Info                              : Audio Coding 3
Mode extension                           : CM (complete main)
Format settings, Endianness              : Big
Codec ID                                 : A_AC3
Duration                                 : 1h 31mn
Bit rate mode                            : Constant
Bit rate                                 : 256 Kbps
Channel(s)                               : 2 channels
Channel positions                        : Front: L R
Sampling rate                            : 48.0 KHz
Bit depth                                : 16 bits
Compression mode                         : Lossy
Stream size                              : 167 MiB (2%)
Title                                    : Tekken (2010) - Español España AC3 2.0
Language                                 : Spanish
Default                                  : No
Forced                                   : No

Audio #4
ID                                       : 5
Format                                   : DTS
Format/Info                              : Digital Theater Systems
Mode                                     : 16
Format settings, Endianness              : Big
Codec ID                                 : A_DTS
Duration                                 : 1h 31mn
Bit rate mode                            : Constant
Bit rate                                 : 1 509 Kbps
Channel(s)                               : 6 channels
Channel positions                        : Front: L C R, Side: L R, LFE
Sampling rate                            : 48.0 KHz
Bit depth                                : 24 bits
Compression mode                         : Lossy
Stream size                              : 985 MiB (13%)
Title                                    : Tekken (2010) - Inglés DTS 5.1
Language                                 : English
Default                                  : No
Forced                                   : No

Text #1
ID                                       : 6
Format                                   : UTF-8
Codec ID                                 : S_TEXT/UTF8
Codec ID/Info                            : UTF-8 Plain Text
Title                                    : Tekken (2010) - Subtítulos Español Forzados
Language                                 : Spanish
Default                                  : Yes
Forced                                   : No

Text #2
ID                                       : 7
Format                                   : UTF-8
Codec ID                                 : S_TEXT/UTF8
Codec ID/Info                            : UTF-8 Plain Text
Title                                    : Tekken (2010) - Subtítulos Español
Language                                 : Spanish
Default                                  : No
Forced                                   : No




DESCARGA.png



MEGA.jpg

Tenemos TODO el material de Club-HD disponible por Mega, enlaces 100% activos y online hasta la fecha

Llévate tus cuentas Mega PRO III gratis con tu membresía VIP!
Todos los posts vivos con links de Mega.
Todo el material de Club-HD desbloqueado y sin publicidad.

Obtén más información sobre nuestras Membresías VIP


UPLOADED_BANNER.png

Para ver este contenido oculto, debes dar click en el botón"Like", o cualquiera de las otras reacciones:

Me Gusta Me Gusta, Me Encanta Me Encanta, Jaja Jaja, Wow Wow, Triste Triste, Molesto Molesto

 
Última edición:
Re: Tekken (2010) 1080p BDRip Dual Inglés-Español [Subt. Esp] (Acción. Ciencia ficción. Artes marciales)

graciasssss.....................
 
Re: Tekken (2010) 1080p BDRip Dual Inglés-Español [Subt. Esp] (Acción. Ciencia ficción. Artes marciales)

Desc_g_
 
Re: Tekken (2010) 1080p BDRip Dual Inglés-Español [Subt. Esp] (Acción. Ciencia ficción. Artes marciales)

descargando
 
Re: Tekken (2010) 1080p BDRip Dual Inglés-Español [Subt. Esp] (Acción. Ciencia ficción. Artes marciales)

Muchisimas Gracias!
 
Re: Tekken (2010) 1080p BDRip Dual Inglés-Español [Subt. Esp] (Acción. Ciencia ficción. Artes marciales)

gracias
 
Re: Tekken (2010) 1080p BDRip Dual Inglés-Español [Subt. Esp] (Acción. Ciencia ficción. Artes marciales)

Gracias!!!!
 
Re: Tekken (2010) 1080p BDRip Dual Inglés-Español [Subt. Esp] (Acción. Ciencia ficción. Artes marciales)

Grande Max!!! :aplausos::aplausos: Aportazo bor :dplgar: Me bajo esta versión sin dudar ;) Saludos Max Recargado l0l Que estés bien bye
 
Re: Tekken (2010) 1080p BDRip Dual Inglés-Español [Subt. Esp] (Acción. Ciencia ficción. Artes marciales)

hmmm vamos a ver como esta
 
Re: Tekken (2010) 1080p BDRip Dual Inglés-Español [Subt. Esp] (Acción. Ciencia ficción. Artes marciales)

a verla!!!
 
Re: Tekken (2010) 1080p BDRip Dual Inglés-Español [Subt. Esp] (Acción. Ciencia ficción. Artes marciales)

Desc_g_
 
Re: Tekken (2010) 1080p BDRip Dual Inglés-Español [Subt. Esp] (Acción. Ciencia ficción. Artes marciales)

Gracias
 
Re: Tekken (2010) 1080p BDRip Dual Inglés-Español [Subt. Esp] (Acción. Ciencia ficción. Artes marciales)

macrosssssssssssssssss wh1p
 
Re: Tekken (2010) 1080p BDRip Dual Inglés-Español [Subt. Esp] (Acción. Ciencia ficción. Artes marciales)

genial a descargar, gracias
 
Re: Tekken (2010) 1080p BDRip Dual Inglés-Español [Subt. Esp] (Acción. Ciencia ficción. Artes marciales)

Super y mega calidad Max. :aplausos: Gracias, a esperar la version 720p buenisimo. Te sacas los mejores ases de la manga. Saludos
 
Re: Tekken (2010) 1080p BDRip Dual Inglés-Español [Subt. Esp] (Acción. Ciencia ficción. Artes marciales)

gracias Desc_g_
 
Re: Tekken (2010) 1080p BDRip Dual Inglés-Español [Subt. Esp] (Acción. Ciencia ficción. Artes marciales)

gracias max por esta peli, nunca la habia visto, Tb_up3
 
Re: Tekken (2010) 1080p BDRip Dual Inglés-Español [Subt. Esp] (Acción. Ciencia ficción. Artes marciales)

Muchas gracias Max
 
Re: Tekken (2010) 1080p BDRip Dual Inglés-Español [Subt. Esp] (Acción. Ciencia ficción. Artes marciales)

gracias
 
Volver