Tengo ganas de ti [I Want You] (2012) m-1080p Audio Español (Drama. Romance)

Maestro Revolver

Administrador
Registro
9 Ago 2012
Mensajes
3.157
Reacciones (ptje)
55.034


Tengo-ganas-de-ti.jpg




FICHA_TECNICA.png


TÍTULO ORIGINAL: Tengo ganas de ti (3MSC 2)
AÑO: 2012
DURACIÓN: 124 min.
PAÍS: España
DIRECTOR: Fernando González Molina
GUIÓN: Ramón Salazar (Novela: Federico Moccia)
REPARTO: Mario Casas, Clara Lago, María Valverde, Nerea Camacho, Diego Martín, Andrea Duro, Marina Salas, Luis Fernández, Antonio Velázquez, Ferrán Vilajosana, Álvaro Cervantes, Carme Elías
PRODUCTORA: Antena 4 Films / Charanga Films / Estudios Hackenbush / Zeta Cinema
GÉNERO: Drama. Romance | Drama romántico. Adolescencia. Secuela
imdb-logo.png
http://www.imdb.com/title/tt1797504/




SINOPSIS.png


Secuela de "Tres metros sobre el cielo". La sexy Gin (Clara Lago) es el nuevo amor de Hache (Mario Casas), pero éste no puede olvidar a su antigua novia, Babi (María Valverde). Hache ha vuelto a casa tras pasar una temporada en Londres, alejado del recuerdo imborrable de aquel primer amor. Para poder reconstruir su vida y olvidar el pasado, Gin parece perfecta, pues es una chica de espíritu descarado, efervescente y vital que le hace creer que es posible revivir aquella magia. Pero tarde o temprano tendrá que encontrarse de nuevo con Babi...




TRAILER.png






CAPTURAS.png


1.jpg


2.jpg


3.jpg


4.jpg


5.jpg


6.jpg


La pelicula NO tiene ninguna marca... solo colocamos el nombre de esta web en las capturas




DATOS_TECNICOS.png


Código:
General
Format                           : Matroska
Format version                   : Version 2
File size                        : 4.06 GiB
Duration                         : 2h 3mn
Overall bit rate                 : 4 703 Kbps
Movie name                       : www.club-hd.com
Encoded date                     : UTC 2012-10-31 22:00:38
Writing application              : mkvmerge v5.7.0 ('The Whirlwind') built on Jul  8 2012 20:08:51
Writing library                  : libebml v1.2.3 + libmatroska v1.3.0

Video
ID                               : 1
Format                           : AVC
Format/Info                      : Advanced Video Codec
Format profile                   : [email protected]
Format settings, CABAC           : Yes
Format settings, ReFrames        : 4 frames
Codec ID                         : V_MPEG4/ISO/AVC
Duration                         : 2h 3mn
Bit rate                         : 4 300 Kbps
Width                            : 1 920 pixels
Height                           : 804 pixels
Display aspect ratio             : 2.40:1
Original display aspect ratio    : 2.40:1
Frame rate                       : 23.976 fps
Color space                      : YUV
Chroma subsampling               : 4:2:0
Bit depth                        : 8 bits
Scan type                        : Progressive
Bits/(Pixel*Frame)               : 0.116
Stream size                      : 3.59 GiB (88%)
Title                            : www.club-hd.com
Writing library                  : x264 core 125 r2208 d9d2288
Language                         : Spanish
Default                          : Yes
Forced                           : No

Audio
ID                               : 2
Format                           : AC-3
Format/Info                      : Audio Coding 3
Mode extension                   : CM (complete main)
Codec ID                         : A_AC3
Duration                         : 2h 3mn
Bit rate mode                    : Constant
Bit rate                         : 448 Kbps
Channel(s)                       : 6 channels
Channel positions                : Front: L C R, Side: L R, LFE
Sampling rate                    : 48.0 KHz
Bit depth                        : 16 bits
Compression mode                 : Lossy
Stream size                      : 396 MiB (10%)
Title                            : www.club-hd.com
Language                         : Spanish
Default                          : Yes
Forced                           : No




Descarga.png




google-drive-vip.png


Tenemos TODO el material de Club-HD disponible por Mega, enlaces 100% activos y online hasta la fecha

Llévate tus cuentas Mega PRO III gratis con tu membresía VIP!
Todos los posts vivos con links de Mega.
Todo el material de Club-HD desbloqueado y sin publicidad.

Obtén más información sobre nuestras Membresías VIP




MEGA.jpg

Tenemos TODO el material de Club-HD disponible por Mega, enlaces 100% activos y online hasta la fecha

Llévate tus cuentas Mega PRO III gratis con tu membresía VIP!
Todos los posts vivos con links de Mega.
Todo el material de Club-HD desbloqueado y sin publicidad.

Obtén más información sobre nuestras Membresías VIP


UPLOADED.TO_BANNER.png

Para ver este contenido oculto, debes dar click en el botón"Like", o cualquiera de las otras reacciones:

Me Gusta Me Gusta, Me Encanta Me Encanta, Jaja Jaja, Wow Wow, Triste Triste, Molesto Molesto

 
Última edición:
pues dicen que esta chida la peli, vamos a ver que tal esta...gracias revolver
 
Muchas Gracias ! descargando la peli para engrupirse a la novia ... jajaja
 
De hace tiempo esperaba esta pelicula en esta calidad, gracias por el aporte
 
Gracias maestro revolver esta pelicula me la han pedido unas amigas y creo que tambien la vere gracias men la esperaba hace mucho tiempo

:dplgar:
 
Volver