Tesis sobre un homicidio (2013) 720p BDRip Audio Latino (Intriga. Thriller)

Maestro Revolver

Administrador
Registro
9 Ago 2012
Mensajes
3.157
Reacciones (ptje)
55.165


Tesis-sobre-un-homicidio.jpg




FichaTecnica.jpg


TÍTULO ORIGINAL: Tesis sobre un homicidio
AÑO: 2013
DURACIÓN: 106 min.
PAÍS: Argentina
DIRECTOR: Hernán A. Golfrid
GUIÓN: Patricio Vega (Novela: Diego Paszkowski)
REPARTO: Ricardo Darín, Alberto Ammann, Arturo Puig, Calu Rivero, Fabián Arenillas, Mara Bestelli, Antonio Ugo, José Luis Mazza, Mateo Chiarino, Natalia Santiago, Ezequiel De Almeida, Cecilia Atán
PRODUCTORA: Coproducción Argentina-España; BD Cine / Tornasol Films / Telefé / DirectTV / Haddock Films / Castafiore Films
GÉNERO: Intriga. Thriller
imdb-logo.png
: http://www.imdb.com/title/tt2241605/




Sinopsis.jpg


Roberto Bermúdez, abogado y profesor especializado en Derecho Penal, está convencido de que Gonzalo, uno de sus alumnos más brillantes, es el autor del brutal asesinato de una chica cometido frente a la Facultad de Derecho. Decidido a demostrar su versión del crimen, emprende por su cuenta una investigación que acabará obsesionándolo.




Trailer.jpg






Capturas.jpg


1.jpg


2.jpg


3.jpg


4.jpg


5.jpg


6.jpg


La pelicula NO tiene ninguna marca... solo colocamos el nombre de esta web en las capturas




MediaInfo.jpg


Código:
General
Format                                   : Matroska
Format version                           : Version 2
File size                                : 4.20 GiB
Duration                                 : 1h 47mn
Overall bit rate                         : 5 599 Kbps
Movie name                               : www.club-hd.com
Encoded date                             : UTC 2013-10-09 16:32:25
Writing application                      : mkvmerge v5.7.0 ('The Whirlwind') built on Jul  8 2012 20:08:51
Writing library                          : libebml v1.2.3 + libmatroska v1.3.0

Video
ID                                       : 1
Format                                   : AVC
Format/Info                              : Advanced Video Codec
Format profile                           : [email protected]
Format settings, CABAC                   : Yes
Format settings, ReFrames                : 12 frames
Codec ID                                 : V_MPEG4/ISO/AVC
Duration                                 : 1h 47mn
Bit rate                                 : 5 153 Kbps
Width                                    : 1 280 pixels
Height                                   : 544 pixels
Display aspect ratio                     : 2.35:1
Frame rate mode                          : Constant
Frame rate                               : 24.000 fps
Color space                              : YUV
Chroma subsampling                       : 4:2:0
Bit depth                                : 8 bits
Scan type                                : Progressive
Bits/(Pixel*Frame)                       : 0.308
Stream size                              : 3.78 GiB (90%)
Title                                    : www.club-hd.com
Language                                 : English
Default                                  : Yes
Forced                                   : No

Audio
ID                                       : 2
Format                                   : AC-3
Format/Info                              : Audio Coding 3
Mode extension                           : CM (complete main)
Format settings, Endianness              : Big
Codec ID                                 : A_AC3
Duration                                 : 1h 47mn
Bit rate mode                            : Constant
Bit rate                                 : 448 Kbps
Channel(s)                               : 6 channels
Channel positions                        : Front: L C R, Side: L R, LFE
Sampling rate                            : 48.0 KHz
Bit depth                                : 16 bits
Compression mode                         : Lossy
Stream size                              : 344 MiB (8%)
Title                                    : www.club-hd.com
Language                                 : Spanish
Default                                  : Yes
Forced                                   : No

Menu
00:00:00.000                             : en:00:00:00.000
00:12:53.208                             : en:00:12:53.208
00:25:58.542                             : en:00:25:58.542
00:39:37.875                             : en:00:39:37.875
00:51:07.917                             : en:00:51:07.917
01:06:51.792                             : en:01:06:51.792
01:19:29.458                             : en:01:19:29.458
01:32:47.500                             : en:01:32:47.500




Descarga.jpg



MEGA.jpg

Tenemos TODO el material de Club-HD disponible por Mega, enlaces 100% activos y online hasta la fecha

Llévate tus cuentas Mega PRO III gratis con tu membresía VIP!
Todos los posts vivos con links de Mega.
Todo el material de Club-HD desbloqueado y sin publicidad.

Obtén más información sobre nuestras Membresías VIP


UPLOADED_BANNER.png

Para ver este contenido oculto, debes dar click en el botón"Like", o cualquiera de las otras reacciones:

Me Gusta Me Gusta, Me Encanta Me Encanta, Jaja Jaja, Wow Wow, Triste Triste, Molesto Molesto

 
Última edición por un moderador:
Volver