• Este aviso va dirigido a todos los nuevos miembros recien llegados a Club-HD. Les recordamos que la direccion URL de este sitio web es , asi que deben acceder únicamente por esta URL. Sean todos bienvenidos al Club!

Tesla (2020) 1080p AMZN WEB-DL Inglés [Subt. Esp] (Drama. Biográfico)

Dante Inferno

🔥Dante Inferno🔥
Miembro del Staff
Moderador
Uploader
Registrado
24 May 2016
Mensajes
618
Puntos de reacción
12,982
Puntos
93
Ubicación
Argentina
Sitio web
club-hd.com




SINOPSIS

Indaga en los esfuerzos que tuvo que realizar Nikola Tesla a la hora de presentar al mundo una revolución energética que cambiaría para siempre el curso de la humanidad.

MÁS INFORMACIÓN




TRAILER



CAPTURAS




MEDIAINFO

General
Complete name : Tesla (2020) 1080p AMZN WEB-DL Inglés [Subt. Esp].mkv
Format : Matroska
Format version : Version 4
File size : 6.84 GiB
Duration : 1 h 42 min
Overall bit rate : 9 564 kb/s
Movie name : Tesla (2020) 1080p AMZN WEB-DL Inglés [Subt. Esp] [www.club-hd.com]
Encoded date : UTC 2020-08-29 00:01:36
Writing application : mkvmerge v49.0.0 ('Sick Of Losing Soulmates') 64-bit
Writing library : libebml v1.4.0 + libmatroska v1.6.1

Video
ID : 1
Format : AVC
Format/Info : Advanced Video Codec
Format profile : High@L4
Format settings : CABAC / 4 Ref Frames
Format settings, CABAC : Yes
Format settings, Reference frames : 4 frames
Codec ID : V_MPEG4/ISO/AVC
Duration : 1 h 42 min
Bit rate mode : Constant
Bit rate : 8 922 kb/s
Nominal bit rate : 10 000 kb/s
Width : 1 920 pixels
Height : 1 040 pixels
Display aspect ratio : 1.85:1
Frame rate mode : Constant
Frame rate : 23.976 (24000/1001) FPS
Color space : YUV
Chroma subsampling : 4:2:0
Bit depth : 8 bits
Scan type : Progressive
Bits/(Pixel*Frame) : 0.186
Stream size : 6.39 GiB (93%)
Title : Tesla (2020) 1080p AMZN WEB-DL Inglés [Subt. Esp]
Language : English
Default : Yes
Forced : No
Color range : Limited
Color primaries : BT.709
Transfer characteristics : BT.709
Matrix coefficients : BT.709

Audio
ID : 2
Format : E-AC-3
Format/Info : Enhanced AC-3
Commercial name : Dolby Digital Plus
Codec ID : A_EAC3
Duration : 1 h 42 min
Bit rate mode : Constant
Bit rate : 640 kb/s
Channel(s) : 6 channels
Channel layout : L R C LFE Ls Rs
Sampling rate : 48.0 kHz
Frame rate : 31.250 FPS (1536 SPF)
Compression mode : Lossy
Stream size : 469 MiB (7%)
Title : Inglés
Language : English
Service kind : Complete Main
Default : Yes
Forced : No

Text
ID : 3
Format : UTF-8
Codec ID : S_TEXT/UTF8
Codec ID/Info : UTF-8 Plain Text
Duration : 1 h 36 min
Bit rate : 67 b/s
Count of elements : 1367
Stream size : 47.4 KiB (0%)
Title : Subtítulos Español
Language : Spanish
Default : Yes
Forced : No


CONTRASEÑA





Disponible
⭐¡VER ONLINE y DESCARGAR 1 LINK!⭐


Enlaces de Mega y Google Drive solo disponibles para Miembros VIP

Compra tu Membresía VIP y apoya a Club-HD!

ATENCIÓN! Tenemos TODO el material de Club-HD disponible por Mega y Google Drive, enlaces 100% activos y online hasta la fecha

Llévate tus cuentas Mega PRO II gratis con tu membresía VIP!
Todos los posts vivos con links de Mega y Google Drive.
Todo el material de Club-HD desbloqueado y sin publicidad.

Click Aquí para más información.

DESCARGAR



Enlaces de Mega y Google Drive solo disponibles para Miembros VIP

Compra tu Membresía VIP y apoya a Club-HD!

ATENCIÓN! Tenemos TODO el material de Club-HD disponible por Mega y Google Drive, enlaces 100% activos y online hasta la fecha

Llévate tus cuentas Mega PRO II gratis con tu membresía VIP!
Todos los posts vivos con links de Mega y Google Drive.
Todo el material de Club-HD desbloqueado y sin publicidad.

Click Aquí para más información.



Para ver este contenido oculto, debes dar click en una de las siguientes reacciones: Like Like, Love Love, Haha Haha, Wow Wow, Sad Sad, Angry Angry



Para ver este contenido oculto, debes dar click en una de las siguientes reacciones: Like Like, Love Love, Haha Haha, Wow Wow, Sad Sad, Angry Angry



Para ver este contenido oculto, debes dar click en una de las siguientes reacciones: Like Like, Love Love, Haha Haha, Wow Wow, Sad Sad, Angry Angry



Para ver este contenido oculto, debes dar click en una de las siguientes reacciones: Like Like, Love Love, Haha Haha, Wow Wow, Sad Sad, Angry Angry
 

El14mago

Well-known member
Miembro VIP
Registrado
10 Sep 2014
Mensajes
1,036
Puntos de reacción
53
Puntos
48
Edad
51
Gracias por el aporte.-
 

cripp

Well-known member
Registrado
27 Ago 2012
Mensajes
8,196
Puntos de reacción
495
Puntos
113
Gracias por compartir
 

ERRE

Well-known member
Registrado
28 Ago 2012
Mensajes
2,252
Puntos de reacción
177
Puntos
63
Gracias... 😄
 

Usuarios Que Están Viendo Este Tema (Total: 1, Miembros: 0, Invitados: 1)

Quien Leyó Este Tema (Total Miembros: 176)

Arriba