Texas Chainsaw 3D (2013) 720p BDRip Dual Latino-Inglés [Subt. Esp] (Terror)

Maestro Revolver

Well-known member
Miembro del Staff
Administrador
Registro
9 Ago 2012
Mensajes
3.567








TÍTULO ORIGINAL: Texas Chainsaw 3D (Leatherface 3D)
AÑO: 2013
DURACIÓN: 92 min.
PAÍS: USA
DIRECTOR: John Luessenhop
GUIÓN: Adam Marcus, Debra Sullivan, Kirsten Elms, Stephen Susco (Personajes: Tobe Hooper, Kim Henkel)
REPARTO: Alexandra Daddario, Trey Songz, Tania Raymonde, Keram Malicki-Sanchez, Shaun Sipos, Thom Barry, Paul Rae, Bill Moseley, Dan Yeager, Richard Riehle, John Dugan, Gunnar Hansen, Marilyn Burns, Tobe Hooper
PRODUCTORA: Nu Image / Millennium
GÉNERO: Terror | Secuela. Slasher. 3-D
: http://www.imdb.com/title/tt1572315/






Secuela del film de Tobe Hooper (1974). El pueblo de Newt (Texas) se vengó de la familia Sawyer por haber ocultado los asesinatos cometidos por Jeb Sawyer, el maníaco de la motosierra, también conocido como “Cara de cuero”. Cuando la gente del pueblo, dirigida por Burt Hartman, quemó su granja, se dio por supuesto que toda la familia había muerto, pero el bebé de los Sawyer sobrevivió. Gavin y Arlene, dos de los vigilantes pueblerinos, se la llevaron en secreto y la criaron como si fuera su hija con el nombre de Heather. A los veinte años, cuando descubrió que había sido adoptada, un abogado la localizó para comunicarle que su abuela la había nombrado heredera de sus bienes.
























La pelicula NO tiene ninguna marca... solo colocamos el nombre de esta web en las capturas






Código:
General
Format                                   : Matroska
Format version                           : Version 2
File size                                : 4.10 GiB
Duration                                 : 1h 31mn
Overall bit rate                         : 6 390 Kbps
Movie name                               : www.club-hd.com
Encoded date                             : UTC 2013-05-02 15:53:13
Writing application                      : mkvmerge v5.7.0 ('The Whirlwind') built on Jul  8 2012 20:08:51
Writing library                          : libebml v1.2.3 + libmatroska v1.3.0
Attachment                               : Yes

Video
ID                                       : 1
Format                                   : AVC
Format/Info                              : Advanced Video Codec
Format profile                           : High@L4.1
Format settings, CABAC                   : Yes
Format settings, ReFrames                : 5 frames
Codec ID                                 : V_MPEG4/ISO/AVC
Duration                                 : 1h 31mn
Bit rate                                 : 5 306 Kbps
Width                                    : 1 280 pixels
Height                                   : 536 pixels
Display aspect ratio                     : 2.40:1
Frame rate mode                          : Constant
Frame rate                               : 23.976 fps
Color space                              : YUV
Chroma subsampling                       : 4:2:0
Bit depth                                : 8 bits
Scan type                                : Progressive
Bits/(Pixel*Frame)                       : 0.323
Stream size                              : 3.32 GiB (81%)
Title                                    : www.club-hd.com
Writing library                          : x264 core 132 r2309 3b1f1f7
Language                                 : English
Default                                  : Yes
Forced                                   : No

Audio #1
ID                                       : 2
Format                                   : AC-3
Format/Info                              : Audio Coding 3
Mode extension                           : CM (complete main)
Format settings, Endianness              : Big
Codec ID                                 : A_AC3
Duration                                 : 1h 31mn
Bit rate mode                            : Constant
Bit rate                                 : 640 Kbps
Channel(s)                               : 6 channels
Channel positions                        : Front: L C R, Side: L R, LFE
Sampling rate                            : 48.0 KHz
Bit depth                                : 16 bits
Compression mode                         : Lossy
Delay relative to video                  : 24ms
Stream size                              : 420 MiB (10%)
Title                                    : Latino
Language                                 : Spanish
Default                                  : Yes
Forced                                   : No

Audio #2
ID                                       : 3
Format                                   : AC-3
Format/Info                              : Audio Coding 3
Mode extension                           : CM (complete main)
Format settings, Endianness              : Big
Codec ID                                 : A_AC3
Duration                                 : 1h 31mn
Bit rate mode                            : Constant
Bit rate                                 : 448 Kbps
Channel(s)                               : 6 channels
Channel positions                        : Front: L C R, Side: L R, LFE
Sampling rate                            : 48.0 KHz
Bit depth                                : 16 bits
Compression mode                         : Lossy
Stream size                              : 294 MiB (7%)
Title                                    : Inglés
Language                                 : English
Default                                  : No
Forced                                   : No

Text
ID                                       : 4
Format                                   : UTF-8
Codec ID                                 : S_TEXT/UTF8
Codec ID/Info                            : UTF-8 Plain Text
Language                                 : Spanish
Default                                  : No
Forced                                   : No

Menu
00:00:00.000                             : en:00:00:00.000
00:06:07.992                             : en:00:06:07.992
00:11:02.536                             : en:00:11:02.536
00:15:42.650                             : en:00:15:42.650
00:21:06.014                             : en:00:21:06.014
00:26:31.047                             : en:00:26:31.047
00:31:46.529                             : en:00:31:46.529
00:36:39.113                             : en:00:36:39.113
00:42:26.418                             : en:00:42:26.418
00:47:58.959                             : en:00:47:58.959
00:52:01.284                             : en:00:52:01.284
00:58:21.414                             : en:00:58:21.414
01:03:28.137                             : en:01:03:28.137
01:08:05.915                             : en:01:08:05.915
01:13:17.476                             : en:01:13:17.476
01:19:07.868                             : en:01:19:07.868
01:24:08.001                             : en:01:24:08.001
01:26:35.356                             : en:01:26:35.356
01:31:43.497                             : en:01:31:43.497








Enlaces de Mega y Google Drive solo disponibles para Miembros VIP

Compra tu Membresía VIP y apoya a Club-HD!

ATENCIÓN! Tenemos TODO el material de Club-HD disponible por Mega y Google Drive, enlaces 100% activos y online hasta la fecha

Llévate tus cuentas Mega PRO III gratis con tu membresía VIP!
Todos los posts vivos con links de Mega y Google Drive.
Todo el material de Club-HD desbloqueado y sin publicidad.

Click Aquí para más información.



Para ver este contenido oculto, debes dar click en una de las siguientes reacciones : Like Like, Love Love, Haha Haha, Wow Wow, Sad Sad, Angry Angry

 
Última edición por un moderador:

damisaiyan

Active member
Registro
27 Ago 2012
Mensajes
506
Edad
34
yeah muchas muchas gracias :D veamos esta continuacion aver que tal se lucieron con el gore Desc_g_ :dplgar:
 

Usuarios Que Están Viendo Este Tema (Total: 1, Miembros: 0, Invitados: 1)

Quién Leyó Este Tema (Total Miembros: 2)

Arriba