That's My Boy (2012) m-720p Dual Latino-Inglés [Subt.Esp-Ing] (Comedia)

Maestro Revolver

Well-known member
Miembro del Staff
Administrador
Registro
9 Ago 2012
Mensajes
3.569
Reacciones
59.341
Puntos
113

Reputation:









TÍTULO ORIGINAL: That's My Boy
AÑO: 2012
DURACIÓN: 114 min.
PAÍS: USA
DIRECTOR: Sean Anders
GUIÓN: David Caspe
REPARTO: Adam Sandler, Andy Samberg, Leighton Meester, James Caan, Susan Sarandon, Milo Ventimiglia
PRODUCTORA: Columbia Pictures / Happy Madison Productions
GÉNERO: Comedia
http://www.imdb.com/title/tt1232200/





Un hombre (Adam Sandler) pretende controlar la inminente boda de su hijo (Andy Samberg), y para ello se muda a vivir con él y su novia (Leighton Meester).
























La pelicula NO tiene ninguna marca... solo colocamos el nombre de esta web en las capturas






Código:
General
Format                           : Matroska
Format version                   : Version 2
File size                        : 2.66 GiB
Duration                         : 1h 56mn
Overall bit rate                 : 3 282 Kbps
Movie name                       : www.club-hd.com
Encoded date                     : UTC 2012-10-21 20:16:25
Writing application              : mkvmerge v5.7.0 ('The Whirlwind') built on Jul  8 2012 20:08:51
Writing library                  : libebml v1.2.3 + libmatroska v1.3.0

Video
ID                               : 1
Format                           : AVC
Format/Info                      : Advanced Video Codec
Format profile                   : High@L4.1
Format settings, CABAC           : Yes
Format settings, ReFrames        : 8 frames
Codec ID                         : V_MPEG4/ISO/AVC
Duration                         : 1h 56mn
Bit rate                         : 2 640 Kbps
Width                            : 1 280 pixels
Height                           : 534 pixels
Display aspect ratio             : 2.40:1
Frame rate                       : 23.976 fps
Color space                      : YUV
Chroma subsampling               : 4:2:0
Bit depth                        : 8 bits
Scan type                        : Progressive
Bits/(Pixel*Frame)               : 0.161
Stream size                      : 2.09 GiB (79%)
Title                            : www.club-hd.com
Writing library                  : x264 core 128 r2216 198a7ea
Language                         : English
Default                          : Yes
Forced                           : No

Audio #1
ID                               : 2
Format                           : AC-3
Format/Info                      : Audio Coding 3
Mode extension                   : CM (complete main)
Codec ID                         : A_AC3
Duration                         : 1h 56mn
Bit rate mode                    : Constant
Bit rate                         : 192 Kbps
Channel(s)                       : 2 channels
Channel positions                : Front: L R
Sampling rate                    : 48.0 KHz
Bit depth                        : 16 bits
Compression mode                 : Lossy
Stream size                      : 159 MiB (6%)
Title                            : www.club-hd.com  >>  Latino
Language                         : Spanish
Default                          : Yes
Forced                           : No

Audio #2
ID                               : 3
Format                           : AC-3
Format/Info                      : Audio Coding 3
Mode extension                   : CM (complete main)
Codec ID                         : A_AC3
Duration                         : 1h 56mn
Bit rate mode                    : Constant
Bit rate                         : 448 Kbps
Channel(s)                       : 6 channels
Channel positions                : Front: L C R, Side: L R, LFE
Sampling rate                    : 48.0 KHz
Bit depth                        : 16 bits
Compression mode                 : Lossy
Stream size                      : 372 MiB (14%)
Title                            : www.club-hd.com  >>  Inglés
Language                         : English
Default                          : No
Forced                           : No

Text #1
ID                               : 4
Format                           : UTF-8
Codec ID                         : S_TEXT/UTF8
Codec ID/Info                    : UTF-8 Plain Text
Language                         : Spanish
Default                          : No
Forced                           : No

Text #2
ID                               : 5
Format                           : UTF-8
Codec ID                         : S_TEXT/UTF8
Codec ID/Info                    : UTF-8 Plain Text
Language                         : English
Default                          : No
Forced                           : No

Menu
00:00:00.000                     : en:Chapter 1
00:08:43.314                     : en:Chapter 2
00:13:34.397                     : en:Chapter 3
00:20:24.056                     : en:Chapter 4
00:29:34.940                     : en:Chapter 5
00:37:35.044                     : en:Chapter 6
00:42:40.099                     : en:Chapter 7
00:48:39.500                     : en:Chapter 8
00:55:37.209                     : en:Chapter 9
01:01:34.524                     : en:Chapter 10
01:08:21.431                     : en:Chapter 11
01:16:37.968                     : en:Chapter 12
01:24:46.832                     : en:Chapter 13
01:29:29.864                     : en:Chapter 14
01:35:47.408                     : en:Chapter 15
01:47:11.759                     : en:Chapter 16




Sin Contraseña | Simple Extracción











Enlaces de Mega y Fireload solo disponibles para Miembros VIP

Compra tu Membresía VIP y apoya a Club-HD!

ATENCIÓN! Tenemos TODO el material de Club-HD disponible por Mega y Fireload, enlaces 100% activos y online hasta la fecha

Llévate tus cuentas Mega PRO II gratis con tu membresía VIP!
Todos los posts vivos con links de Mega y Fireload.
Todo el material de Club-HD desbloqueado y sin publicidad.

Click Aquí para más información.



Enlaces de Mega y Fireload solo disponibles para Miembros VIP

Compra tu Membresía VIP y apoya a Club-HD!

ATENCIÓN! Tenemos TODO el material de Club-HD disponible por Mega y Fireload, enlaces 100% activos y online hasta la fecha

Llévate tus cuentas Mega PRO II gratis con tu membresía VIP!
Todos los posts vivos con links de Mega y Fireload.
Todo el material de Club-HD desbloqueado y sin publicidad.

Click Aquí para más información.


Para ver este contenido oculto, debes dar click en una de las siguientes reacciones : Like Like, Love Love, Haha Haha, Wow Wow, Sad Sad, Angry Angry

 
Última edición:

Dracarys

Well-known member
Miembro del Staff
Súper Moderador
Uploader
Colaborador
Miembro VIP
Registro
29 Ago 2012
Mensajes
768
Reacciones
8.195
Puntos
93
Ubicación
Chile

Reputation:

gracias descargando...
 

Mate78

Ladron de mi cerebro
Miembro del Staff
Súper Moderador
Registro
27 Ago 2012
Mensajes
1.235
Reacciones
918
Puntos
113

Reputation:

a divertirme un rato despues de haber visto VHS ( por dios ) gracias bestia !!!!:dplgar:
 

Omar Herrera

Well-known member
Miembro del Staff
Súper Moderador
Registro
27 Ago 2012
Mensajes
1.234
Reacciones
325
Puntos
83
Edad
32
Ubicación
Managua

Reputation:

jaja o sea que viste una comedia y ahora vas a ver otra! :( dash2
Gracias por el audio latino! victory

Esta tan Mal la de VHS??? hace poco termine de bajarmela, aun no la he visto.
--------------------------------------------------------------------------------

Excelente Revolver, para todos aquellos que pedian el audio latino, por mi parte me quedo con el original!
Gracias amigo :aplausos:
 

Usuarios Que Están Viendo Este Tema (Total: 1, Miembros: 0, Invitados: 1)

Arriba