The Ant Bully (2006) 720p BDRip Dual Latino-Inglés [Subt. Esp] (Animación)

Max

Admin
Miembro del Staff
Administrador
Registro
8 Ago 2012
Mensajes
5.593
Reacciones
23.794
Puntos
113
Ubicación
Disco C

Reputation:





TÍTULO ORIGINAL: The Ant Bully
TÍTULO EN LATINO: Las aventuras de Lucas
AÑO: 2006
DURACIÓN: 90 min.
PAÍS: Estados Unidos
DIRECTOR: John A. Davis
GUIÓN: John A. Davis (Libre: John Nickle)
MÚSICA: John Debney
FOTOGRAFÍA: Animation
REPARTO: Animation
PRODUCTORA: Warner Bros. Pictures
GÉNERO: Animación. Comedia. Infantil | Insectos

http://www.imdb.com/title/tt0429589/?ref_=fn_al_tt_1






Al pobre Lucas Nickle (voz de Zach Tyler Eisen), un niño de 10 años, todo le sale mal. Hace poco que se ha mudado a una nueva ciudad con su familia y no se ha hecho ni un amigo. Su hermana Tiffany (voz de Allison Mack), una quinceañera, no hace más que darle la tabarra y últimamente sus padres (voces de Cheri Oteri y Larry Miller) no le hacen ni caso ya que están muy ocupados planeando su gran viaje de aniversario de bodas a Puerto Vallarta. Mientras tanto la abuela (voz original de Lily Tomlin), cariñosa pero algo excéntrica, dedica su tiempo a proteger a la familia de unos extraterrestres que conoce a través de la prensa sensacionalista. Por si esto no fuera suficiente, Lucas es el blanco favorito del "bully" del lugar, Steve (voz original de Myles Jeffrey), quién no pierde oportunidad de intimidarle. A su vez, Lucas disfruta destruyendo los pequeños montículos que forman las hormigas en su jardín - descarga su frustración sobre los montículos de tierra y sus minúsculos habitantes pataleándoles, pisoteándoles, y regándoles con la manguera.









































Código:
General
Complete name                            : The Ant Bully (2006) 720p BDRip Dual Latino-Inglés [Subt. Esp].mkv
Format                                   : Matroska
Format version                           : Version 4 / Version 2
File size                                : 2.95 GiB
Duration                                 : 1h 29mn
Overall bit rate                         : 4 743 Kbps
Movie name                               : www.club-hd.com --> The Ant Bully (2006) 720p BDRip Dual Latino-Inglés [Subt. Esp]
Encoded date                             : UTC 2010-02-22 21:41:31
Writing application                      : mkvmerge v5.9.0 ('On The Loose') built on Dec  9 2012 15:37:01
Writing library                          : libebml v1.3.0 + libmatroska v1.4.0

Video
ID                                       : 1
Format                                   : AVC
Format/Info                              : Advanced Video Codec
Format profile                           : High@L4.1
Format settings, CABAC                   : Yes
Format settings, ReFrames                : 9 frames
Codec ID                                 : V_MPEG4/ISO/AVC
Duration                                 : 1h 29mn
Bit rate                                 : 3 844 Kbps
Width                                    : 1 280 pixels
Height                                   : 720 pixels
Display aspect ratio                     : 16:9
Frame rate mode                          : Constant
Frame rate                               : 23.976 fps
Color space                              : YUV
Chroma subsampling                       : 4:2:0
Bit depth                                : 8 bits
Scan type                                : Progressive
Bits/(Pixel*Frame)                       : 0.174
Stream size                              : 2.33 GiB (79%)
Title                                    : www.club-hd.com --> The Ant Bully (2006) 720p BDRip Dual Latino-Inglés [Subt. Esp]
Writing library                          : x264 core 120 r2146 bcd41db
Encoding settings                        : cabac=1 / ref=9 / deblock=1:-1:-1 / analyse=0x3:0x133 / me=umh / subme=10 / psy=1 / psy_rd=1.00:0.10 / mixed_ref=1 / me_range=32 / chroma_me=1 / trellis=2 / 8x8dct=1 / cqm=0 / deadzone=21,11 / fast_pskip=1 / chroma_qp_offset=-3 / threads=12 / sliced_threads=0 / nr=0 / decimate=1 / interlaced=0 / bluray_compat=0 / constrained_intra=0 / bframes=8 / b_pyramid=2 / b_adapt=2 / b_bias=0 / direct=3 / weightb=1 / open_gop=0 / weightp=2 / keyint=250 / keyint_min=23 / scenecut=40 / intra_refresh=0 / rc_lookahead=128 / rc=2pass / mbtree=1 / bitrate=3844 / ratetol=1.0 / qcomp=0.60 / qpmin=0 / qpmax=69 / qpstep=4 / cplxblur=20.0 / qblur=0.5 / ip_ratio=1.40 / aq=1:0.95
Language                                 : English
Default                                  : Yes
Forced                                   : No

Audio #1
ID                                       : 2
Format                                   : AC-3
Format/Info                              : Audio Coding 3
Mode extension                           : CM (complete main)
Format settings, Endianness              : Big
Codec ID                                 : A_AC3
Duration                                 : 1h 29mn
Bit rate mode                            : Constant
Bit rate                                 : 256 Kbps
Channel(s)                               : 2 channels
Channel positions                        : Front: L R
Sampling rate                            : 48.0 KHz
Bit depth                                : 16 bits
Compression mode                         : Lossy
Delay relative to video                  : 1s 100ms
Stream size                              : 163 MiB (5%)
Title                                    : The Ant Bully (2006) - Español Latino AC3 2.0
Language                                 : Spanish
Default                                  : Yes
Forced                                   : No

Audio #2
ID                                       : 3
Format                                   : AC-3
Format/Info                              : Audio Coding 3
Mode extension                           : CM (complete main)
Format settings, Endianness              : Big
Codec ID                                 : A_AC3
Duration                                 : 1h 29mn
Bit rate mode                            : Constant
Bit rate                                 : 640 Kbps
Channel(s)                               : 6 channels
Channel positions                        : Front: L C R, Side: L R, LFE
Sampling rate                            : 48.0 KHz
Bit depth                                : 16 bits
Compression mode                         : Lossy
Stream size                              : 408 MiB (13%)
Title                                    : The Ant Bully (2006) - Inglés AC3 5.1
Language                                 : English
Default                                  : No
Forced                                   : No

Text
ID                                       : 4
Format                                   : UTF-8
Codec ID                                 : S_TEXT/UTF8
Codec ID/Info                            : UTF-8 Plain Text
Title                                    : Subtítulos Español
Language                                 : Spanish
Default                                  : No
Forced                                   : No












Enlaces de Mega y Fireload solo disponibles para Miembros VIP

Compra tu Membresía VIP y apoya a Club-HD!

ATENCIÓN! Tenemos TODO el material de Club-HD disponible por Mega y Fireload, enlaces 100% activos y online hasta la fecha

Llévate tus cuentas Mega PRO II gratis con tu membresía VIP!
Todos los posts vivos con links de Mega y Fireload.
Todo el material de Club-HD desbloqueado y sin publicidad.

Click Aquí para más información.

Enlaces de Mega y Fireload solo disponibles para Miembros VIP

Compra tu Membresía VIP y apoya a Club-HD!

ATENCIÓN! Tenemos TODO el material de Club-HD disponible por Mega y Fireload, enlaces 100% activos y online hasta la fecha

Llévate tus cuentas Mega PRO II gratis con tu membresía VIP!
Todos los posts vivos con links de Mega y Fireload.
Todo el material de Club-HD desbloqueado y sin publicidad.

Click Aquí para más información.


Para ver este contenido oculto, debes dar click en una de las siguientes reacciones : Like Like, Love Love, Haha Haha, Wow Wow, Sad Sad, Angry Angry


Para ver este contenido oculto, debes dar click en una de las siguientes reacciones : Like Like, Love Love, Haha Haha, Wow Wow, Sad Sad, Angry Angry
 
Última edición por un moderador:

Usuarios Que Están Viendo Este Tema (Total: 1, Miembros: 0, Invitados: 1)

Arriba