The Apparition (2012) m-720p BDRip Inglés [Subt. Esp-Ing] (Terror. Thriller)

Max

Admin
Miembro del Staff
Administrador
Registro
8 Ago 2012
Mensajes
5.766
Ubicación
Disco C




TÍTULO ORIGINAL: The Apparition
TÍTULO EN LATINO: La aparición
AÑO: 2012
DURACIÓN: 82 min.
PAÍS: Estados Unidos
DIRECTOR: Todd Lincoln
GUIÓN: Todd Lincoln
MÚSICA: tomandandy
FOTOGRAFÍA: Daniel Pearl
REPARTO: Sebastian Stan, Ashley Greene, Tom Felton, Julianna Guill, Luke Pasqualino, Rick Gomez, Suzanne Ford, Anna Clark, Meena Serendib, Marti Matulis, Melissa Goldberg
PRODUCTORA: Dark Castle Entertainment / Warner Bros. Pictures
GÉNERO: Terror. Thriller | Sobrenatural

http://www.imdb.com/title/tt1433822/






Una joven pareja vive obsesionada a causa de una presencia sobrenatural, fruto de un experimento realizado en un colegio. Felton interpreta a un experto en fenómenos paranormales.































Código:
[/SIZE][/CENTER]
[SIZE=3][CENTER]
General
Complete name                    : The Apparition (2012) m-720p BDRip Inglés [Subt. Esp-Ing].mkv
Format                           : Matroska
Format version                   : Version 2
File size                        : 1.80 GiB
Duration                         : 1h 22mn
Overall bit rate                 : 3 129 Kbps
Movie name                       : www.club-hd.com --> The Apparition (2012) m-720p BDRip Inglés [Subt. Esp-Ing]
Encoded date                     : UTC 2012-11-11 00:23:29
Writing application              : mkvmerge v5.8.0 ('No Sleep / Pillow') built on Sep  2 2012 15:37:04
Writing library                  : libebml v1.2.3 + libmatroska v1.3.0

Video
ID                               : 1
Format                           : AVC
Format/Info                      : Advanced Video Codec
Format profile                   : High@L4.1
Format settings, CABAC           : Yes
Format settings, ReFrames        : 9 frames
Codec ID                         : V_MPEG4/ISO/AVC
Duration                         : 1h 22mn
Bit rate                         : 2 680 Kbps
Width                            : 1 280 pixels
Height                           : 534 pixels
Display aspect ratio             : 2.40:1
Frame rate                       : 23.976 fps
Color space                      : YUV
Chroma subsampling               : 4:2:0
Bit depth                        : 8 bits
Scan type                        : Progressive
Bits/(Pixel*Frame)               : 0.164
Stream size                      : 1.51 GiB (84%)
Title                            : www.club-hd.com --> The Apparition (2012) m-720p BDRip Inglés [Subt. Esp-Ing]
Writing library                  : x264 core 128 r2216 198a7ea
Encoding settings                : cabac=1 / ref=9 / deblock=1:-3:-3 / analyse=0x3:0x113 / me=umh / subme=10 / psy=1 / psy_rd=1.00:0.00 / mixed_ref=1 / me_range=16 / chroma_me=1 / trellis=2 / 8x8dct=1 / cqm=0 / deadzone=21,11 / fast_pskip=1 / chroma_qp_offset=-2 / threads=48 / lookahead_threads=8 / sliced_threads=0 / nr=0 / decimate=1 / interlaced=0 / bluray_compat=0 / constrained_intra=0 / bframes=3 / b_pyramid=2 / b_adapt=1 / b_bias=0 / direct=1 / weightb=1 / open_gop=0 / weightp=2 / keyint=250 / keyint_min=23 / scenecut=40 / intra_refresh=0 / rc=2pass / mbtree=0 / bitrate=2680 / ratetol=1.0 / qcomp=0.60 / qpmin=0 / qpmax=69 / qpstep=4 / cplxblur=20.0 / qblur=0.5 / ip_ratio=1.40 / pb_ratio=1.30 / aq=1:0.80
Language                         : English
Default                          : Yes
Forced                           : No

Audio
ID                               : 2
Format                           : AC-3
Format/Info                      : Audio Coding 3
Mode extension                   : CM (complete main)
Codec ID                         : A_AC3
Duration                         : 1h 22mn
Bit rate mode                    : Constant
Bit rate                         : 448 Kbps
Channel(s)                       : 6 channels
Channel positions                : Front: L C R, Side: L R, LFE
Sampling rate                    : 48.0 KHz
Bit depth                        : 16 bits
Compression mode                 : Lossy
Stream size                      : 264 MiB (14%)
Title                            : The Apparition (2012) - Inglés AC3 5.1
Language                         : English
Default                          : Yes
Forced                           : No

Text #1
ID                               : 3
Format                           : UTF-8
Codec ID                         : S_TEXT/UTF8
Codec ID/Info                    : UTF-8 Plain Text
Title                            : Subtítulos Español
Language                         : Spanish
Default                          : Yes
Forced                           : No

Text #2
ID                               : 4
Format                           : UTF-8
Codec ID                         : S_TEXT/UTF8
Codec ID/Info                    : UTF-8 Plain Text
Title                            : Subtítulos Inglés
Language                         : English
Default                          : No
Forced                           : No

Menu
00:00:00.000                     : en:Chapter 1
00:09:27.317                     : en:Chapter 2
00:18:28.024                     : en:Chapter 3
00:31:04.029                     : en:Chapter 4
00:40:29.969                     : en:Chapter 5
00:49:46.275                     : en:Chapter 6
01:00:39.261                     : en:Chapter 7
01:13:37.413                     : en:Chapter 8











Enlaces de Mega y Google Drive solo disponibles para Miembros VIP

Compra tu Membresía VIP y apoya a Club-HD!

ATENCIÓN! Tenemos TODO el material de Club-HD disponible por Mega y Google Drive, enlaces 100% activos y online hasta la fecha

Llévate tus cuentas Mega PRO III gratis con tu membresía VIP!
Todos los posts vivos con links de Mega y Google Drive.
Todo el material de Club-HD desbloqueado y sin publicidad.

Click Aquí para más información.




Enlaces de Mega y Google Drive solo disponibles para Miembros VIP

Compra tu Membresía VIP y apoya a Club-HD!

ATENCIÓN! Tenemos TODO el material de Club-HD disponible por Mega y Google Drive, enlaces 100% activos y online hasta la fecha

Llévate tus cuentas Mega PRO III gratis con tu membresía VIP!
Todos los posts vivos con links de Mega y Google Drive.
Todo el material de Club-HD desbloqueado y sin publicidad.

Click Aquí para más información.



Para ver este contenido oculto, debes dar click en una de las siguientes reacciones : Like Like, Love Love, Haha Haha, Wow Wow, Sad Sad, Angry Angry
 
Última edición por un moderador:

Usuarios Que Están Viendo Este Tema (Total: 1, Miembros: 0, Invitados: 1)

Quién Leyó Este Tema (Total Miembros: 2)

Arriba