The Australian Pink Floyd Show - Live at Hammersmith Apollo (2012) 720p BDRip [AC3 5.1] [DTS] (Concierto)

Maestro Revolver

Well-known member
Miembro del Staff
Administrador
Registro
9 Ago 2012
Mensajes
3.569
Reacciones
59.366
Puntos
113

Reputation:









The Australian Pink Floyd Show - el mayor proyecto que ha recibido una licencia para la interpretación de la música de Pink Floyd y reproducir en sus discursos, la atmósfera de la legendaria The Wall («Wall") instalaciones impresionantes láser, efectos especiales y música increíble. hacer el espectáculo memorable. The Australian Pink Floyd Show fue fundada en Australia en 1988, pero su fama ha dado el paso al momento Angliyu.Na The Australian Pink Floyd Show es considerado el mejor de las representaciones alternativas de Pink Floyd. (Traductor de Google)



Track List:

1. Shine On You Crazy Diamond 1-5
2. Welcome To The Machine
3. Coming Back To Life
4. Arnold Layne
5. Sorrow
6. Learning To Fly
7. Dogs
8. Speak To Me
9. Breathe
10. On The Run
11. Time
12. Breathe Reprise
13. The Great hGig In The Sky
14. What Do You Want From Me
15. Careful With That Axe Eugene
16. Money
17. The Happiest Days Of Our Lives
18. Another Brick In The Wall – Part 2
19. Wish You Were Here
20. One Of These Days
21. Comfortably Numb
22. Run Like Hell



































Código:
General
Format                                   : Matroska
Format version                           : Version 2
File size                                : 8.62 GiB
Duration                                 : 2h 30mn
Overall bit rate                         : 8 175 Kbps
Movie name                               : www.club-hd.com
Encoded date                             : UTC 2013-02-09 18:35:03
Writing application                      : mkvmerge v5.7.0 ('The Whirlwind') built on Jul  8 2012 20:08:51
Writing library                          : libebml v1.2.3 + libmatroska v1.3.0

Video
ID                                       : 1
Format                                   : AVC
Format/Info                              : Advanced Video Codec
Format profile                           : High@L4.1
Format settings, CABAC                   : Yes
Format settings, ReFrames                : 5 frames
Codec ID                                 : V_MPEG4/ISO/AVC
Duration                                 : 2h 30mn
Bit rate                                 : 6 024 Kbps
Width                                    : 1 280 pixels
Height                                   : 720 pixels
Display aspect ratio                     : 16:9
Frame rate mode                          : Constant
Frame rate                               : 25.000 fps
Color space                              : YUV
Chroma subsampling                       : 4:2:0
Bit depth                                : 8 bits
Scan type                                : Progressive
Bits/(Pixel*Frame)                       : 0.261
Stream size                              : 6.18 GiB (72%)
Title                                    : www.club-hd.com
Writing library                          : x264 core 124 r2197 69a0443
Language                                 : English
Default                                  : Yes
Forced                                   : No

Audio #1
ID                                       : 2
Format                                   : AC-3
Format/Info                              : Audio Coding 3
Mode extension                           : CM (complete main)
Format settings, Endianness              : Big
Codec ID                                 : A_AC3
Duration                                 : 2h 30mn
Bit rate mode                            : Constant
Bit rate                                 : 640 Kbps
Channel(s)                               : 6 channels
Channel positions                        : Front: L C R, Side: L R, LFE
Sampling rate                            : 48.0 KHz
Bit depth                                : 16 bits
Compression mode                         : Lossy
Stream size                              : 691 MiB (8%)
Title                                    : www.club-hd.com  >>  Inglés AC3 5.1, 640 kbps
Language                                 : English
Default                                  : Yes
Forced                                   : No

Audio #2
ID                                       : 3
Format                                   : DTS
Format/Info                              : Digital Theater Systems
Mode                                     : 16
Format settings, Endianness              : Big
Codec ID                                 : A_DTS
Duration                                 : 2h 30mn
Bit rate mode                            : Constant
Bit rate                                 : 1 509 Kbps
Channel(s)                               : 6 channels
Channel positions                        : Front: L C R, Side: L R, LFE
Sampling rate                            : 48.0 KHz
Bit depth                                : 24 bits
Compression mode                         : Lossy
Stream size                              : 1.59 GiB (18%)
Title                                    : www.club-hd.com  >>  Inglés DTS 5.1, 1 510 kbps
Language                                 : English
Default                                  : No
Forced                                   : No










Enlaces de Mega y Fireload solo disponibles para Miembros VIP

Compra tu Membresía VIP y apoya a Club-HD!

ATENCIÓN! Tenemos TODO el material de Club-HD disponible por Mega y Fireload, enlaces 100% activos y online hasta la fecha

Llévate tus cuentas Mega PRO II gratis con tu membresía VIP!
Todos los posts vivos con links de Mega y Fireload.
Todo el material de Club-HD desbloqueado y sin publicidad.

Click Aquí para más información.




Enlaces de Mega y Fireload solo disponibles para Miembros VIP

Compra tu Membresía VIP y apoya a Club-HD!

ATENCIÓN! Tenemos TODO el material de Club-HD disponible por Mega y Fireload, enlaces 100% activos y online hasta la fecha

Llévate tus cuentas Mega PRO II gratis con tu membresía VIP!
Todos los posts vivos con links de Mega y Fireload.
Todo el material de Club-HD desbloqueado y sin publicidad.

Click Aquí para más información.



Para ver este contenido oculto, debes dar click en una de las siguientes reacciones : Like Like, Love Love, Haha Haha, Wow Wow, Sad Sad, Angry Angry
 
Última edición:

lefarocu69

New member
Registro
27 Ago 2012
Mensajes
182
Reacciones
5
Puntos
0
Edad
52

Reputation:

este es un extraordinario concierto gracias por traerlo a la web revolver
 

roddan1973

New member
Registro
26 Sep 2012
Mensajes
528
Reacciones
2
Puntos
0
Edad
47

Reputation:

gracias
 
Última edición por un moderador:

Vicure

Well-known member
Registro
27 Ago 2012
Mensajes
1.752
Reacciones
52
Puntos
48

Reputation:

En verdad con este aporte se sacaron un 1000000. La mejor banda de todos los tiempos, bueno para mi, muchas gracias y obviamente descargando!!!!!!
 

sinpk2

New member
Registro
29 Ago 2012
Mensajes
360
Reacciones
17
Puntos
0

Reputation:

vamos a recordar estas tardes de buena musica tirado en la cama, con los ojos cerrados :) gracias
 

Usuarios Que Están Viendo Este Tema (Total: 1, Miembros: 0, Invitados: 1)

Arriba