The Aviator (2004) 720p BDRip Dual Latino-Inglés [Subt. Esp] (Drama)

Maestro Revolver

Administrador
Registro
9 Ago 2012
Mensajes
3.157
Reacciones (ptje)
54.925


The-Aviator.jpg





FichaTecnica.jpg


TÍTULO ORIGINAL: The Aviator
AÑO: 2004
DURACIÓN: 166 min.
PAÍS: USA
DIRECTOR: Martin Scorsese
GUIÓN: John Logan
REPARTO: Leonardo DiCaprio, Cate Blanchett, Kate Beckinsale, Alec Baldwin, Alan Alda, Willem Dafoe, Jude Law, John C. Reilly, Gwen Stefani, Ian Holm, Brent Spiner, Rufus Wainwright, Amy Sloan, Danny Huston, Adam Scott, Matt Ross, Kelli Garner, Frances Conroy, Stanely DeSantis, Edward Herrmann, Kenneth Walsh, J.C. Mackenzie
PRODUCTORA: Miramax Films / Warner Bros. Pictures
GÉNERO: Drama | Biográfico. Cine dentro del cine. Aviones. Años 20. Años 30. Años 40
imdb-logo.png
: http://www.imdb.com/title/tt0338751/

PREMIOS: 2004: 5 Oscars, incluyendo mejor actriz secundaria, fotografía, montaje. 11 Nominaciones
2004: 3 Globos de Oro: Mejor película drama, actor drama y bso. 6 nominaciones
2004: 4 premios BAFTA, incluyendo mejor película y actriz secundaria. 14 nominaciones
2004: Asociación de Críticos de Los Angeles: Mejor diseño de producción. 2 nominaciones
2004: American Film Institute (AFI): Top 10 - Mejores películas del año
2004: 2 Critics' Choice Awards: Mejor director y compositor (Shore). 6 nominaciones
2004: Asociación de Críticos de Chicago: Mejor Fotografía y Banda sonora





Sinopsis.jpg


Biografía del polifacético Howard Hughes, un hombre que con el poco dinero que heredó de su padre se trasladó a Hollywood, donde amasó un gran fortuna. Fue uno de los productores más destacados del cine americano durante las décadas de los treinta y los cuarenta. Lanzó al estrellato a actrices como Jean Harlow y llegó a ser dueño de la RKO Radio Pictures. Pero Hughes, además de productor, fue un gran industrial y comerciante que desempeñó un importante papel por sus innovaciones en el mundo de la aviación.




Trailer.jpg






Capturas.jpg


1.jpg


2.jpg


3.jpg


4.jpg


5.jpg


6.jpg


La pelicula NO tiene ninguna marca... solo colocamos el nombre de esta web en las capturas




MediaInfo.jpg


Código:
General
Format                                   : Matroska
Format version                           : Version 2
File size                                : 4.15 GiB
Duration                                 : 2h 50mn
Overall bit rate                         : 3 493 Kbps
Movie name                               : www.club-hd.com
Encoded date                             : UTC 2014-03-11 23:45:22
Writing application                      : mkvmerge v5.7.0 ('The Whirlwind') built on Jul  8 2012 20:08:51
Writing library                          : libebml v1.2.3 + libmatroska v1.3.0

Video
ID                                       : 1
Format                                   : AVC
Format/Info                              : Advanced Video Codec
Format profile                           : [email protected]
Format settings, CABAC                   : Yes
Format settings, ReFrames                : 5 frames
Muxing mode                              : Header stripping
Codec ID                                 : V_MPEG4/ISO/AVC
Duration                                 : 2h 50mn
Bit rate                                 : 2 592 Kbps
Width                                    : 1 280 pixels
Height                                   : 544 pixels
Display aspect ratio                     : 2.35:1
Frame rate mode                          : Constant
Frame rate                               : 23.976 fps
Color space                              : YUV
Chroma subsampling                       : 4:2:0
Bit depth                                : 8 bits
Scan type                                : Progressive
Bits/(Pixel*Frame)                       : 0.155
Stream size                              : 3.08 GiB (74%)
Title                                    : www.club-hd.com
Writing library                          : x264 core 129 r2245 bc13772
Language                                 : English
Default                                  : Yes
Forced                                   : No

Audio #1
ID                                       : 2
Format                                   : AC-3
Format/Info                              : Audio Coding 3
Mode extension                           : CM (complete main)
Format settings, Endianness              : Big
Muxing mode                              : Header stripping
Codec ID                                 : A_AC3
Duration                                 : 2h 50mn
Bit rate mode                            : Constant
Bit rate                                 : 192 Kbps
Channel(s)                               : 2 channels
Channel positions                        : Front: L R
Sampling rate                            : 44.1 KHz
Bit depth                                : 16 bits
Compression mode                         : Lossy
Stream size                              : 234 MiB (5%)
Title                                    : www.club-hd.com  >>  Latino
Language                                 : Spanish
Default                                  : Yes
Forced                                   : No

Audio #2
ID                                       : 3
Format                                   : AC-3
Format/Info                              : Audio Coding 3
Mode extension                           : CM (complete main)
Format settings, Endianness              : Big
Muxing mode                              : Header stripping
Codec ID                                 : A_AC3
Duration                                 : 2h 50mn
Bit rate mode                            : Constant
Bit rate                                 : 640 Kbps
Channel(s)                               : 6 channels
Channel positions                        : Front: L C R, Side: L R, LFE
Sampling rate                            : 48.0 KHz
Bit depth                                : 16 bits
Compression mode                         : Lossy
Stream size                              : 779 MiB (18%)
Title                                    : www.club-hd.com  >>  Inglés
Language                                 : English
Default                                  : No
Forced                                   : No

Text
ID                                       : 4
Format                                   : UTF-8
Codec ID                                 : S_TEXT/UTF8
Codec ID/Info                            : UTF-8 Plain Text
Language                                 : Spanish
Default                                  : No
Forced                                   : No




Descarga.jpg



MEGA.jpg

Tenemos TODO el material de Club-HD disponible por Mega, enlaces 100% activos y online hasta la fecha

Llévate tus cuentas Mega PRO III gratis con tu membresía VIP!
Todos los posts vivos con links de Mega.
Todo el material de Club-HD desbloqueado y sin publicidad.

Obtén más información sobre nuestras Membresías VIP



UPLOADED_BANNER.png

Para ver este contenido oculto, debes dar click en el botón"Like", o cualquiera de las otras reacciones:

Me Gusta Me Gusta, Me Encanta Me Encanta, Jaja Jaja, Wow Wow, Triste Triste, Molesto Molesto
 
Última edición por un moderador:
Volver