The Beyonce - Experience Live (2007) 720p BDRip [AC3 - DTS 5.1] (Concierto)

Maestro Revolver

Well-known member
Miembro del Staff
Administrador
Registro
9 Ago 2012
Mensajes
3.567








The Beyoncé Experience fue la segunda gira de conciertos por todo el mundo de la cantautora estadounidense Beyoncé en apoyo a su segundo álbum de estudio en solitario B'Day. La gira comenzó en Tokio, Japón el 10 de abril de 2007 y terminó en Taipéi, República de China el 12 de noviembre de 2007. En esta gira Beyoncé visito lugares que nunca había visitado sola en una sola gira.



Track List:

01 Intro (The Beyonce Experience Fanfare)
02 Crazy In Love (Crazy Mix)
03 Freakum Dress
04 Green Light
05 Baby Boy (Reggae Medley)
06 Beautiful Liar
07 Naughty Girl
08 Me, Myself And I
09 Dangerously In Love (He Loves Me Mix)
10 Flaws And All
11 Destiny‘s Child Medley (Cops And Robbers Intro)
12 Independent Woman Part 1
13 No, No, No Part 2
14 Bootylicious
15 Bug A Boo (H-town Screwed Down Mix)
16 Bills, Bills, Bills
17 Cater 2 U
18 Say My Name
19 Jumpin’ Jumpin’
20 Soldier (Soldier Boy Crank Mix)
21 Survivor (Destiny‘s Child Reunion)
22 Speechless
23 Ring The Alarm Intro Skit (Jailhouse Confessions)
24 Ring The Alarm
25 Suga Mama
26 Upgrade U (feat. Jay Z)
27 Bonnie And Clyde (Prince Mix)
28 Check On It
29 Deja Vu
30 Get Me Bodied
31 Welcome To Hollywood
32 Deena/Dreamgirls
33 Listen
34 Irreplaceable
35 Beyonce B’day Surprise





























Código:
General
Format                                   : Matroska
Format version                           : Version 2
File size                                : 8.21 GiB
Duration                                 : 2h 10mn
Overall bit rate                         : 9 013 Kbps
Movie name                               : www.club-hd.com
Encoded date                             : UTC 2013-10-20 16:09:02
Writing application                      : mkvmerge v5.7.0 ('The Whirlwind') built on Jul  8 2012 20:08:51
Writing library                          : libebml v1.2.3 + libmatroska v1.3.0

Video
ID                                       : 1
Format                                   : AVC
Format/Info                              : Advanced Video Codec
Format profile                           : High@L4.1
Format settings, CABAC                   : Yes
Format settings, ReFrames                : 9 frames
Codec ID                                 : V_MPEG4/ISO/AVC
Duration                                 : 2h 10mn
Bit rate                                 : 6 861 Kbps
Width                                    : 1 280 pixels
Height                                   : 720 pixels
Display aspect ratio                     : 16:9
Frame rate mode                          : Constant
Frame rate                               : 23.976 fps
Color space                              : YUV
Chroma subsampling                       : 4:2:0
Bit depth                                : 8 bits
Scan type                                : Progressive
Bits/(Pixel*Frame)                       : 0.311
Stream size                              : 6.09 GiB (74%)
Title                                    : www.club-hd.com
Writing library                          : x264 core 120 r2146 bcd41db
Language                                 : English
Default                                  : Yes
Forced                                   : No

Audio #1
ID                                       : 2
Format                                   : DTS
Format/Info                              : Digital Theater Systems
Mode                                     : 16
Format settings, Endianness              : Big
Codec ID                                 : A_DTS
Duration                                 : 2h 10mn
Bit rate mode                            : Constant
Bit rate                                 : 1 510 Kbps
Channel(s)                               : 6 channels
Channel positions                        : Front: L C R, Side: L R, LFE
Sampling rate                            : 48.0 KHz
Bit depth                                : 24 bits
Compression mode                         : Lossy
Stream size                              : 1.37 GiB (17%)
Title                                    : DTS
Language                                 : English
Default                                  : Yes
Forced                                   : No

Audio #2
ID                                       : 3
Format                                   : AC-3
Format/Info                              : Audio Coding 3
Mode extension                           : CM (complete main)
Format settings, Endianness              : Big
Codec ID                                 : A_AC3
Duration                                 : 2h 10mn
Bit rate mode                            : Constant
Bit rate                                 : 640 Kbps
Channel(s)                               : 6 channels
Channel positions                        : Front: L C R, Side: L R, LFE
Sampling rate                            : 48.0 KHz
Bit depth                                : 16 bits
Compression mode                         : Lossy
Stream size                              : 597 MiB (7%)
Title                                    : AC3
Language                                 : English
Default                                  : No
Forced                                   : No

Menu
00:00:00.000                             : en:Intro (The Beyonce Experience Fanfare)
00:01:09.319                             : en:02 Crazy In Love (Crazy Mix)
00:05:17.901                             : en:03 Freakum Dress
00:09:13.261                             : en:04 Green Light
00:17:35.930                             : en:05 Baby Boy (Reggae Medley)
00:21:46.305                             : en:06 Beautiful Liar
00:24:11.492                             : en:07 Naughty Girl
00:29:28.767                             : en:08 Me, Myself And I
00:36:47.372                             : en:09 Dangerously In Love (He Loves Me Mix)
00:43:58.719                             : fr:10 Flaws And All
00:48:18.896                             : en:11 Destiny's Child Medley (Cops And Robbers Intro)
00:51:56.989                             : en:12 Independent Woman Part 1
00:54:17.129                             : en:13 No, No, No Part 2
00:55:04.092                             : en:14 Bootylicious
00:56:22.129                             : en:15 Bug A Boo (H-town Screwed Down Mix)
00:59:31.735                             : en:16 Bills, Bills, Bills
01:00:34.005                             : en:17 Cater 2 U
01:02:28.828                             : en:18 Say My Name
01:05:41.187                             : en:19 Jumpin’ Jumpin’
01:07:16.199                             : en:20 Soldier (Soldier Boy Crank Mix)
01:09:17.653                             : en:21 Survivor (Destiny's Child Reunion)
01:11:47.803                             : en:22 Speechless
01:16:03.058                             : en:23 Ring The Alarm Intro Skit (Jailhouse Confessions)
01:19:36.772                             : en:24 Ring The Alarm
01:22:59.474                             : en:25 Suga Mama
01:26:07.662                             : en:26 Upgrade U (feat. Jay Z)
01:30:28.423                             : en:27 Bonnie And Clyde (Prince Mix)
01:31:44.666                             : en:28 Check On It
01:33:52.252                             : en:29 Deja Vu
01:41:00.471                             : zh:30 Get Me Bodied
01:46:07.152                             : en:31 Welcome To Hollywood
01:48:37.136                             : en:32 Deena/Dreamgirls
01:50:32.000                             : en:33 Listen
01:53:38.437                             : en:34 Irreplaceable
02:01:11.181                             : en:35 Beyonce B’day Surprise
02:06:14.567                             : en:end








Enlaces de Mega y Google Drive solo disponibles para Miembros VIP

Compra tu Membresía VIP y apoya a Club-HD!

ATENCIÓN! Tenemos TODO el material de Club-HD disponible por Mega y Google Drive, enlaces 100% activos y online hasta la fecha

Llévate tus cuentas Mega PRO III gratis con tu membresía VIP!
Todos los posts vivos con links de Mega y Google Drive.
Todo el material de Club-HD desbloqueado y sin publicidad.

Click Aquí para más información.



Para ver este contenido oculto, debes dar click en una de las siguientes reacciones : Like Like, Love Love, Haha Haha, Wow Wow, Sad Sad, Angry Angry

 
Última edición por un moderador:

Usuarios Que Están Viendo Este Tema (Total: 1, Miembros: 0, Invitados: 1)

Quién Leyó Este Tema (Total Miembros: 3)

Arriba