The Big Wedding (2013) 720p BDRip Dual Latino-Inglés [Subt. Esp] (Comedia)

Maestro Revolver

Well-known member
Miembro del Staff
Administrador
Registro
9 Ago 2012
Mensajes
3.567








TÍTULO ORIGINAL: The Big Wedding
AÑO: 2013
DURACIÓN: 90 min.
PAÍS: USA
DIRECTOR: Justin Zackham
GUIÓN: Justin Zackham
REPARTO: Robert De Niro, Susan Sarandon, Diane Keaton, Katherine Heigl, Amanda Seyfried, Robin Williams, Ben Barnes, Topher Grace, Christine Ebersole, David Rasche, Ana Aydra
PRODUCTORA: Lionsgate / Millennium Films / Two Ton Films
GÉNERO: Comedia | Bodas. Familia. Remake
: http://www.imdb.com/title/tt1931435/






Con motivo de la boda de su hijo adoptivo Alejandro (Ben Barnes) con Missy (Amanda Seyfried), Ellie Griffin (Diane Keaton) vuelve a su antiguo hogar diez años después de que su marido Don (Robert De Niro) la engañara con su mejor amiga Bebe (Susan Sarandon), con la que vive desde entonces. Pero, cuando Alejandro les anuncia que su madre biológica (Patricia Rae) asistirá a la boda y que, debido a sus estrictas creencias religiosas, no debe saber que Ellie y Don están divorciados, éstos se verán obligados a aparentar que son un matrimonio feliz, y Bebe tendrá que salir de escena.
























La pelicula NO tiene ninguna marca... solo colocamos el nombre de esta web en las capturas






Código:
General
Format                                   : Matroska
Format version                           : Version 2
File size                                : 3.91 GiB
Duration                                 : 1h 29mn
Overall bit rate                         : 6 246 Kbps
Movie name                               : www.club-hd.com
Encoded date                             : UTC 2013-08-19 16:42:33
Writing application                      : mkvmerge v5.7.0 ('The Whirlwind') built on Jul  8 2012 20:08:51
Writing library                          : libebml v1.2.3 + libmatroska v1.3.0

Video
ID                                       : 1
Format                                   : AVC
Format/Info                              : Advanced Video Codec
Format profile                           : High@L3.1
Format settings, CABAC                   : Yes
Format settings, ReFrames                : 5 frames
Codec ID                                 : V_MPEG4/ISO/AVC
Duration                                 : 1h 29mn
Bit rate                                 : 5 477 Kbps
Width                                    : 1 280 pixels
Height                                   : 536 pixels
Display aspect ratio                     : 2.40:1
Frame rate mode                          : Constant
Frame rate                               : 23.976 fps
Color space                              : YUV
Chroma subsampling                       : 4:2:0
Bit depth                                : 8 bits
Scan type                                : Progressive
Bits/(Pixel*Frame)                       : 0.333
Stream size                              : 3.35 GiB (86%)
Title                                    : www.club-hd.com
Writing library                          : x264 core 135 r2345 f0c1c53
Language                                 : English
Default                                  : Yes
Forced                                   : No

Audio #1
ID                                       : 2
Format                                   : AC-3
Format/Info                              : Audio Coding 3
Mode extension                           : CM (complete main)
Format settings, Endianness              : Big
Codec ID                                 : A_AC3
Duration                                 : 1h 29mn
Bit rate mode                            : Constant
Bit rate                                 : 320 Kbps
Channel(s)                               : 6 channels
Channel positions                        : Front: L C R, Side: L R, LFE
Sampling rate                            : 44.1 KHz
Bit depth                                : 16 bits
Compression mode                         : Lossy
Delay relative to video                  : 200ms
Stream size                              : 205 MiB (5%)
Title                                    : www.club-hd.com > Latino
Language                                 : Spanish
Default                                  : Yes
Forced                                   : No

Audio #2
ID                                       : 3
Format                                   : AC-3
Format/Info                              : Audio Coding 3
Mode extension                           : CM (complete main)
Format settings, Endianness              : Big
Codec ID                                 : A_AC3
Duration                                 : 1h 29mn
Bit rate mode                            : Constant
Bit rate                                 : 448 Kbps
Channel(s)                               : 6 channels
Channel positions                        : Front: L C R, Side: L R, LFE
Sampling rate                            : 48.0 KHz
Bit depth                                : 16 bits
Compression mode                         : Lossy
Stream size                              : 287 MiB (7%)
Title                                    : www.club-hd.com > Inglés
Language                                 : English
Default                                  : No
Forced                                   : No

Text
ID                                       : 4
Format                                   : UTF-8
Codec ID                                 : S_TEXT/UTF8
Codec ID/Info                            : UTF-8 Plain Text
Language                                 : Spanish
Default                                  : No
Forced                                   : No

Menu
00:00:00.000                             : en:00:00:00.000
00:07:27.739                             : en:00:07:27.739
00:12:42.887                             : en:00:12:42.887
00:20:57.214                             : en:00:20:57.214
00:28:32.669                             : en:00:28:32.669
00:36:18.468                             : en:00:36:18.468
00:43:38.366                             : en:00:43:38.366
00:51:07.982                             : en:00:51:07.982
00:59:10.464                             : en:00:59:10.464
01:08:03.246                             : en:01:08:03.246
01:16:01.056                             : en:01:16:01.056
01:22:41.999                             : en:01:22:41.999








Enlaces de Mega y Google Drive solo disponibles para Miembros VIP

Compra tu Membresía VIP y apoya a Club-HD!

ATENCIÓN! Tenemos TODO el material de Club-HD disponible por Mega y Google Drive, enlaces 100% activos y online hasta la fecha

Llévate tus cuentas Mega PRO III gratis con tu membresía VIP!
Todos los posts vivos con links de Mega y Google Drive.
Todo el material de Club-HD desbloqueado y sin publicidad.

Click Aquí para más información.


Para ver este contenido oculto, debes dar click en una de las siguientes reacciones : Like Like, Love Love, Haha Haha, Wow Wow, Sad Sad, Angry Angry



 
Última edición por un moderador:

Usuarios Que Están Viendo Este Tema (Total: 1, Miembros: 0, Invitados: 1)

Quién Leyó Este Tema (Total Miembros: 2)

Arriba