The Bling Ring (2013) 720p BDRip Audio Inglés [Subt. Esp] (Drama | Comedia)

Maestro Revolver

Well-known member
Miembro del Staff
Administrador
Registro
9 Ago 2012
Mensajes
3.567








TÍTULO ORIGINAL: The Bling Ring
AÑO: 2013
DURACIÓN: 90 min.
PAÍS: USA
DIRECTOR: Sofia Coppola
GUIÓN: Sofia Coppola
REPARTO: Israel Broussard, Katie Chang, Emma Watson, Leslie Mann, Taissa Farmiga, Erin Daniels, Nina Siemaszko, Gavin Rossdale, Stacy Edwards, Maika Monroe, Claire Julien, Joe Nieves, Halston Sage, Paris Hilton
PRODUCTORA: American Zoetrope / NALA Films / Pathé Distribution
GÉNERO: Drama | Comedia dramática. Robos & Atracos. Basado en hechos reales. Adolescencia
: http://www.imdb.com/title/tt2132285/






En los Los Ángeles, un grupo de adolescentes fascinados por las celebridades y el universo de las marcas rastrean en Internet la agenda de las celebridades para robar sus residencias. Sustraen por más de 3 millones de dólares en objetos de lujo: joyas, ropa, zapatos, etc. Entre las victimas está Paris Hilton, Orlando Bloom y Rachel Bilson. Los medios apodaron a esta banda, la «Bling Ring».
























La pelicula NO tiene ninguna marca... solo colocamos el nombre de esta web en las capturas






Código:
General
Format                                   : Matroska
Format version                           : Version 2
File size                                : 3.70 GiB
Duration                                 : 1h 30mn
Overall bit rate                         : 5 843 Kbps
Movie name                               : www.club-hd.com
Encoded date                             : UTC 2013-09-06 23:57:08
Writing application                      : mkvmerge v5.7.0 ('The Whirlwind') built on Jul  8 2012 20:08:51
Writing library                          : libebml v1.2.3 + libmatroska v1.3.0

Video
ID                                       : 1
Format                                   : AVC
Format/Info                              : Advanced Video Codec
Format profile                           : High@L4.1
Format settings, CABAC                   : Yes
Format settings, ReFrames                : 5 frames
Codec ID                                 : V_MPEG4/ISO/AVC
Duration                                 : 1h 30mn
Bit rate                                 : 5 396 Kbps
Width                                    : 1 280 pixels
Height                                   : 688 pixels
Display aspect ratio                     : 1.85:1
Frame rate mode                          : Constant
Frame rate                               : 23.976 fps
Color space                              : YUV
Chroma subsampling                       : 4:2:0
Bit depth                                : 8 bits
Scan type                                : Progressive
Bits/(Pixel*Frame)                       : 0.256
Stream size                              : 3.34 GiB (90%)
Title                                    : www.club-hd.com
Writing library                          : x264 core 133 r2334 a3ac64b
Language                                 : English
Default                                  : Yes
Forced                                   : No

Audio
ID                                       : 2
Format                                   : AC-3
Format/Info                              : Audio Coding 3
Mode extension                           : CM (complete main)
Format settings, Endianness              : Big
Codec ID                                 : A_AC3
Duration                                 : 1h 30mn
Bit rate mode                            : Constant
Bit rate                                 : 448 Kbps
Channel(s)                               : 6 channels
Channel positions                        : Front: L C R, Side: L R, LFE
Sampling rate                            : 48.0 KHz
Bit depth                                : 16 bits
Compression mode                         : Lossy
Stream size                              : 290 MiB (8%)
Title                                    : www.club-hd.com
Language                                 : English
Default                                  : Yes
Forced                                   : No

Text
ID                                       : 3
Format                                   : UTF-8
Codec ID                                 : S_TEXT/UTF8
Codec ID/Info                            : UTF-8 Plain Text
Language                                 : Spanish
Default                                  : Yes
Forced                                   : No

Menu
00:00:00.000                             : en:00:00:00.000
00:04:29.060                             : en:00:04:29.060
00:09:05.044                             : en:00:09:05.044
00:15:32.473                             : en:00:15:32.473
00:20:00.366                             : en:00:20:00.366
00:25:54.052                             : en:00:25:54.052
00:31:11.661                             : en:00:31:11.661
00:35:03.768                             : en:00:35:03.768
00:39:31.703                             : en:00:39:31.703
00:46:27.118                             : en:00:46:27.118
00:50:11.008                             : en:00:50:11.008
00:55:13.101                             : en:00:55:13.101
00:59:34.404                             : en:00:59:34.404
01:05:37.642                             : en:01:05:37.642
01:10:14.544                             : en:01:10:14.544
01:14:26.962                             : en:01:14:26.962








Enlaces de Mega y Google Drive solo disponibles para Miembros VIP

Compra tu Membresía VIP y apoya a Club-HD!

ATENCIÓN! Tenemos TODO el material de Club-HD disponible por Mega y Google Drive, enlaces 100% activos y online hasta la fecha

Llévate tus cuentas Mega PRO III gratis con tu membresía VIP!
Todos los posts vivos con links de Mega y Google Drive.
Todo el material de Club-HD desbloqueado y sin publicidad.

Click Aquí para más información.


Para ver este contenido oculto, debes dar click en una de las siguientes reacciones : Like Like, Love Love, Haha Haha, Wow Wow, Sad Sad, Angry Angry



 
Última edición por un moderador:

Joker

Well-known member
Miembro del Staff
Súper Moderador
Registro
27 Ago 2012
Mensajes
1.349
Ubicación
Arkham Asylum
Desc_g_

Excelente Master!! Muchas Gracias!!!

Me la llevo, esta la quería ver en el cine y no pude ir así que es el momento perfecto para descargarla...

Si después llegara en Latino la reemplazo sin dudarlo

Gracias nuevamente!!

Saludos :D
 

kenny407

New member
Registro
27 Ago 2012
Mensajes
487
Edad
28
Emma Watson <3 no importa de que sea la película media vez este ella.. Gracias maestros
 

Usuarios Que Están Viendo Este Tema (Total: 1, Miembros: 0, Invitados: 1)

Quién Leyó Este Tema (Total Miembros: 2)

Arriba