The Book Thief (2013) 1080p BDRip Dual Latino-Inglés [Subt. Esp] (Drama)

Maestro Revolver

Administrador
Registro
9 Ago 2012
Mensajes
3.157
Reacciones (ptje)
54.925


The-Book-Thief-1080p.jpg





FichaTecnica.jpg


TÍTULO ORIGINAL: The Book Thief
AÑO: 2013
DURACIÓN: 131 min.
PAÍS: USA
DIRECTOR: Brian Percival
GUIÓN: Michael Petroni (Historia: Markus Zusak)
REPARTO: Sophie Nélisse, Geoffrey Rush, Emily Watson, Nico Liersch, Ben Schnetzer, Sandra Nedeleff, Hildegard Schroedter, Gotthard Lange
PRODUCTORA: Coproducción EEUU-Alemania; Fox 2000 Pictures / Studio Babelsberg
GÉNERO: Drama | II Guerra Mundial. Infancia. Años 30
imdb-logo.png
: http://www.imdb.com/title/tt0816442/

PREMIOS: 2013: Oscars: Nominada a mejor bso
2013: Globos de Oro: Nominada a mejor bso
2013: Premios BAFTA: Nominada a mejor bso
2013: Satellite Awards: Nominada a mejor actriz sec. (Watson) y banda sonora




Sinopsis.jpg


Narra la historia de una animosa y valerosa jovencita llamada Liesel, que transforma las vidas de todas las personas de su entorno cuando la envían a vivir con una familia de acogida en la Alemania de la II Guerra Mundial. Para Liesel, el poder de las palabras y de la imaginación se convierte en una forma de escapar de los tumultuosos eventos que la rodean, tanto a ella como a toda la gente que conoce y quiere.




Trailer.jpg






Capturas.jpg


1.jpg


2.jpg


3.jpg


4.jpg


5.jpg


6.jpg


La pelicula NO tiene ninguna marca... solo colocamos el nombre de esta web en las capturas




MediaInfo.jpg


Código:
General
Format                                   : Matroska
Format version                           : Version 2
File size                                : 10.8 GiB
Duration                                 : 2h 10mn
Overall bit rate                         : 11.8 Mbps
Movie name                               : www.club-hd.com
Encoded date                             : UTC 2014-03-01 00:28:16
Writing application                      : mkvmerge v5.7.0 ('The Whirlwind') built on Jul  8 2012 20:08:51
Writing library                          : libebml v1.2.3 + libmatroska v1.3.0

Video
ID                                       : 1
Format                                   : AVC
Format/Info                              : Advanced Video Codec
Format profile                           : [email protected]
Format settings, CABAC                   : Yes
Format settings, ReFrames                : 5 frames
Muxing mode                              : Header stripping
Codec ID                                 : V_MPEG4/ISO/AVC
Duration                                 : 2h 10mn
Bit rate                                 : 9 240 Kbps
Width                                    : 1 920 pixels
Height                                   : 800 pixels
Display aspect ratio                     : 2.40:1
Frame rate mode                          : Constant
Frame rate                               : 23.976 fps
Color space                              : YUV
Chroma subsampling                       : 4:2:0
Bit depth                                : 8 bits
Scan type                                : Progressive
Bits/(Pixel*Frame)                       : 0.251
Stream size                              : 8.23 GiB (76%)
Title                                    : www.club-hd.com
Writing library                          : x264 core 140 r2377 1ca7bb9
Language                                 : English
Default                                  : Yes
Forced                                   : No

Audio #1
ID                                       : 2
Format                                   : AC-3
Format/Info                              : Audio Coding 3
Mode extension                           : CM (complete main)
Format settings, Endianness              : Big
Muxing mode                              : Header stripping
Codec ID                                 : A_AC3
Duration                                 : 2h 10mn
Bit rate mode                            : Constant
Bit rate                                 : 448 Kbps
Channel(s)                               : 6 channels
Channel positions                        : Front: L C R, Side: L R, LFE
Sampling rate                            : 48.0 KHz
Bit depth                                : 16 bits
Compression mode                         : Lossy
Stream size                              : 420 MiB (4%)
Title                                    : www.club-hd.com  >>  Latino AC3 5.1
Language                                 : Spanish
Default                                  : Yes
Forced                                   : No

Audio #2
ID                                       : 3
Format                                   : AC-3
Format/Info                              : Audio Coding 3
Mode extension                           : CM (complete main)
Format settings, Endianness              : Big
Muxing mode                              : Header stripping
Codec ID                                 : A_AC3
Duration                                 : 2h 10mn
Bit rate mode                            : Constant
Bit rate                                 : 640 Kbps
Channel(s)                               : 6 channels
Channel positions                        : Front: L C R, Side: L R, LFE
Sampling rate                            : 48.0 KHz
Bit depth                                : 16 bits
Compression mode                         : Lossy
Stream size                              : 600 MiB (5%)
Title                                    : www.club-hd.com  >>  Inglés AC3 5.1
Language                                 : English
Default                                  : No
Forced                                   : No

Audio #3
ID                                       : 4
Format                                   : DTS
Format/Info                              : Digital Theater Systems
Mode                                     : 16
Format settings, Endianness              : Big
Muxing mode                              : Header stripping
Codec ID                                 : A_DTS
Duration                                 : 2h 10mn
Bit rate mode                            : Constant
Bit rate                                 : 1 509 Kbps
Channel(s)                               : 6 channels
Channel positions                        : Front: L C R, Side: L R, LFE
Sampling rate                            : 48.0 KHz
Bit depth                                : 24 bits
Compression mode                         : Lossy
Stream size                              : 1.38 GiB (13%)
Title                                    : www.club-hd.com  >>  Inglés DTS 5.1
Language                                 : English
Default                                  : No
Forced                                   : No

Text #1
ID                                       : 5
Format                                   : UTF-8
Codec ID                                 : S_TEXT/UTF8
Codec ID/Info                            : UTF-8 Plain Text
Title                                    : Forzados
Language                                 : Spanish
Default                                  : Yes
Forced                                   : No

Text #2
ID                                       : 6
Format                                   : UTF-8
Codec ID                                 : S_TEXT/UTF8
Codec ID/Info                            : UTF-8 Plain Text
Title                                    : Completos
Language                                 : Spanish
Default                                  : No
Forced                                   : No

Menu
00:00:00.000                             : en:00:00:00.000
00:03:50.230                             : en:00:03:50.230
00:07:58.061                             : en:00:07:58.061
00:10:27.126                             : en:00:10:27.126
00:13:42.405                             : en:00:13:42.405
00:17:54.949                             : en:00:17:54.949
00:20:17.591                             : en:00:20:17.591
00:23:01.380                             : en:00:23:01.380
00:24:57.746                             : en:00:24:57.746
00:26:58.158                             : en:00:26:58.158
00:30:54.811                             : en:00:30:54.811
00:34:01.164                             : en:00:34:01.164
00:39:21.859                             : en:00:39:21.859
00:43:00.870                             : en:00:43:00.870
00:45:09.999                             : en:00:45:09.999
00:50:59.056                             : en:00:50:59.056
00:52:18.761                             : en:00:52:18.761
00:54:55.709                             : en:00:54:55.709
00:59:04.624                             : en:00:59:04.624
01:02:16.232                             : en:01:02:16.232
01:05:42.564                             : en:01:05:42.564
01:08:20.513                             : en:01:08:20.513
01:12:41.983                             : en:01:12:41.983
01:18:14.857                             : en:01:18:14.857
01:23:50.025                             : en:01:23:50.025
01:27:59.399                             : en:01:27:59.399
01:30:46.274                             : en:01:30:46.274
01:36:25.405                             : en:01:36:25.405
01:40:48.584                             : en:01:40:48.584
01:43:54.812                             : en:01:43:54.812
01:47:24.104                             : en:01:47:24.104
01:49:38.405                             : en:01:49:38.405
01:54:24.274                             : en:01:54:24.274
02:02:10.949                             : en:02:02:10.949
02:03:13.386                             : en:02:03:13.386
02:05:21.514                             : en:02:05:21.514




Descarga.jpg



MEGA.jpg

Tenemos TODO el material de Club-HD disponible por Mega, enlaces 100% activos y online hasta la fecha

Llévate tus cuentas Mega PRO III gratis con tu membresía VIP!
Todos los posts vivos con links de Mega.
Todo el material de Club-HD desbloqueado y sin publicidad.

Obtén más información sobre nuestras Membresías VIP



UPLOADED_BANNER.png

Para ver este contenido oculto, debes dar click en el botón"Like", o cualquiera de las otras reacciones:

Me Gusta Me Gusta, Me Encanta Me Encanta, Jaja Jaja, Wow Wow, Triste Triste, Molesto Molesto
 
Última edición por un moderador:
Desc_g_

Excelente Revolver, de los estrenos que subirás este era el que estaba esperando!!! :OHHH:

Esta película me dijeron que esta buena, ya hace tiempo que se estreno en cines pero aun sigue en cartelera asi que creo que si lo esta :p

Espero otra con ansias pero ojala salga el audio Latino pronto Mlevol0

Gracias Master!!!

Saludos :D
 
Gracias Revolver!!!


Que hermosa película, llena de esperanza y................mentira señores!!!!, estan hablando de una piba que roba!!!.......sí roba libros!!!......Presa tendría que ir, por dios!!!! :cnfus:..............S_T1S_T1
 
No se si descargar la versión 1080p o la 720p xD
 
Volver