The Boondock Saints (1999) 1080p BDRip Dual Latino-Inglés [Subt. Esp] (Acción | Crimen)

Maestro Revolver

Administrador
Registro
9 Ago 2012
Mensajes
3.157
Reacciones (ptje)
54.925
Aporte recuperado gracias a nuestro amigo clasaase


TheBoondockSaints-1080p.jpg




FichaTecnica.jpg


TÍTULO ORIGINAL: The Boondock Saints
AÑO: 1999
DURACIÓN: 107 min.
PAÍS: USA
DIRECTOR: Troy Duffy
GUIÓN: Troy Duffy
REPARTO: Willem Dafoe, Sean Patrick Flanery, Norman Reedus, David Della Rocco, Billy Connolly, Ron Jeremy
PRODUCTORA: Franchise Films
GÉNERO: Acción | Crimen. Mafia. Comedia negra
imdb-logo.png
: http://www.imdb.com/title/tt0144117/




Sinopsis.jpg


En Boston, los hermanos irlandeses Connor y Murphy McManus, se convierten, de repente, en los "santos" de un barrio, tras matar a unos mafiosos rusos. Deciden entonces eliminar a toda la escoria de la ciudad, pues creen que Dios los ha elegido para erradicar el mal de la Tierra. La policía y, especialmente un agente homosexual del FBI, les siguen la pista, aunque éste reconoce que lo que están haciendo es lo que él siempre ha deseado. Por su lucha en favor de la Verdad ("Veritas") y la justicia ("Aequitas"), los Santos cuentan con la simpatía de los ciudadanos.




Trailer.jpg






Capturas.jpg


1.jpg


2.jpg


3.jpg


4.jpg


5.jpg


6.jpg


La pelicula NO tiene ninguna marca... solo colocamos el nombre de esta web en las capturas




MediaInfo.jpg


Código:
General
Format                                   : Matroska
Format version                           : Version 2
File size                                : 15.5 GiB
Duration                                 : 1h 48mn
Overall bit rate                         : 20.4 Mbps
Movie name                               : www.club-hd.com
Encoded date                             : UTC 2013-07-09 18:47:10
Writing application                      : mkvmerge v5.7.0 ('The Whirlwind') built on Jul  8 2012 20:08:51
Writing library                          : libebml v1.2.3 + libmatroska v1.3.0

Video
ID                                       : 1
Format                                   : AVC
Format/Info                              : Advanced Video Codec
Format profile                           : [email protected]
Format settings, CABAC                   : Yes
Format settings, ReFrames                : 5 frames
Codec ID                                 : V_MPEG4/ISO/AVC
Duration                                 : 1h 48mn
Bit rate                                 : 18.0 Mbps
Width                                    : 1 920 pixels
Height                                   : 816 pixels
Display aspect ratio                     : 2.35:1
Frame rate mode                          : Constant
Frame rate                               : 23.976 fps
Color space                              : YUV
Chroma subsampling                       : 4:2:0
Bit depth                                : 8 bits
Scan type                                : Progressive
Bits/(Pixel*Frame)                       : 0.479
Stream size                              : 13.3 GiB (86%)
Title                                    : www.club-hd.com
Writing library                          : x264 core 66 r1114M a933a3e
Language                                 : English
Default                                  : Yes
Forced                                   : No

Audio #1
ID                                       : 2
Format                                   : AC-3
Format/Info                              : Audio Coding 3
Mode extension                           : CM (complete main)
Format settings, Endianness              : Big
Codec ID                                 : A_AC3
Duration                                 : 1h 48mn
Bit rate mode                            : Constant
Bit rate                                 : 256 Kbps
Channel(s)                               : 2 channels
Channel positions                        : Front: L R
Sampling rate                            : 48.0 KHz
Bit depth                                : 16 bits
Compression mode                         : Lossy
Stream size                              : 199 MiB (1%)
Title                                    : www.club-hd.com  >>  Latino AC3 2.0
Language                                 : Spanish
Default                                  : Yes
Forced                                   : No

Audio #2
ID                                       : 3
Format                                   : AC-3
Format/Info                              : Audio Coding 3
Mode extension                           : CM (complete main)
Format settings, Endianness              : Big
Codec ID                                 : A_AC3
Duration                                 : 1h 48mn
Bit rate mode                            : Constant
Bit rate                                 : 640 Kbps
Channel(s)                               : 6 channels
Channel positions                        : Front: L C R, Side: L R, LFE
Sampling rate                            : 48.0 KHz
Bit depth                                : 16 bits
Compression mode                         : Lossy
Stream size                              : 496 MiB (3%)
Title                                    : www.club-hd.com  >>  Inglés AC3 5.1
Language                                 : English
Default                                  : No
Forced                                   : No

Audio #3
ID                                       : 4
Format                                   : DTS
Format/Info                              : Digital Theater Systems
Mode                                     : 16
Format settings, Endianness              : Big
Codec ID                                 : A_DTS
Duration                                 : 1h 48mn
Bit rate mode                            : Constant
Bit rate                                 : 1 509 Kbps
Channel(s)                               : 6 channels
Channel positions                        : Front: L C R, Side: L R, LFE
Sampling rate                            : 48.0 KHz
Bit depth                                : 24 bits
Compression mode                         : Lossy
Stream size                              : 1.14 GiB (7%)
Title                                    : www.club-hd.com  >>  Inglés DTS 5.1
Language                                 : English
Default                                  : No
Forced                                   : No

Text
ID                                       : 5
Format                                   : UTF-8
Codec ID                                 : S_TEXT/UTF8
Codec ID/Info                            : UTF-8 Plain Text
Language                                 : Spanish
Default                                  : No
Forced                                   : No




CONTRASE%C3%91A-FINAL.png


Código:
www.club-hd.com




DESCARGA-FINAL.png



Todos los links son Intercambiables!


MEGA-BANNER.png

Tenemos TODO el material de Club-HD disponible por Mega, enlaces 100% activos y online hasta la fecha

Llévate tus cuentas Mega PRO III gratis con tu membresía VIP!
Todos los posts vivos con links de Mega.
Todo el material de Club-HD desbloqueado y sin publicidad.

Obtén más información sobre nuestras Membresías VIP


UPLOADED_BANNER.png

Para ver este contenido oculto, debes dar click en el botón"Like", o cualquiera de las otras reacciones:

Me Gusta Me Gusta, Me Encanta Me Encanta, Jaja Jaja, Wow Wow, Triste Triste, Molesto Molesto
 
Última edición por un moderador:
Volver