The Boss Baby: Family Business (2021) Solo Audio Latino [EAC3 7.1 + AC3 5.1] [PGS] [Extraído Del Bluray]

CinefiloCool

Need, Search, Find, Share
Colaborador
Miembro VIP
Registro
6 Abr 2017
Mensajes
527
Reacciones
5.624
Puntos
93
Ubicación
zion, Rivendel, Hill Valley, pandora, Coruscant o

Reputation:





FICHA
Título original: The Boss Baby: Family Business
Titulo Alternativo: Un jefe en pañales 2: Negocios de familia
Año: 2021
Duración: 97 min.
País: Estados Unidos
Dirección: Tom McGrath
Guion: Michael Mccullers. Personaje: Marla Frazee. Historia: Tom McGrath, Michael Mccullers
Música: Steve Mazzaro, Hans Zimmer
Fotografía: Animación
Reparto: Animación
Productora: DreamWorks Animation
Género: Animación. Comedia | Cine familiar. Secuela

SINOPSIS
Los hermanos Templeton se han convertido en adultos y se han alejado el uno del otro, pero un nuevo jefe bebé con un enfoque de vanguardia está a punto de unirlos nuevamente e inspirar un nuevo negocio familiar.


MEDIA INFO EAC3 7.1
(Solo.Audio)The.Boss.Baby.2.2021.Bluray.eAC3.8CH.768kbps-LAT.eac3
Format : E-AC-3
Format/Info : Enhanced AC-3
Commercial name : Dolby Digital Plus
Format profile : Blu-ray Disc
File size : 589 MiB
Duration : 1 h 47 min
Overall bit rate mode : Constant
Overall bit rate : 768 kb/s

Audio
Format : E-AC-3
Format/Info : Enhanced AC-3
Commercial name : Dolby Digital Plus
Format profile : Blu-ray Disc
Duration : 1 h 47 min
Bit rate mode : Constant
Bit rate : 768 kb/s
Channel(s) : 8 channels
Channel layout : L R C LFE Ls Rs Lb Rb
Sampling rate : 48.0 kHz
Frame rate : 31.250 FPS (1536 SPF)
Compression mode : Lossy
Stream size : 589 MiB (100%)
Service kind : Complete Main

MEDIA INFO AC3 5.1
(Solo.Audio)The.Boss.Baby.2.2021.Bluray.AC3.6CH.640kbps-LAT.ac3
Format : AC-3
Format/Info : Audio Coding 3
Commercial name : Dolby Digital
File size : 491 MiB
Duration : 1 h 47 min
Overall bit rate mode : Constant
Overall bit rate : 640 kb/s

Audio
Format : AC-3
Format/Info : Audio Coding 3
Commercial name : Dolby Digital
Duration : 1 h 47 min
Bit rate mode : Constant
Bit rate : 640 kb/s
Channel(s) : 6 channels
Channel layout : L R C LFE Ls Rs
Sampling rate : 48.0 kHz
Frame rate : 31.250 FPS (1536 SPF)
Compression mode : Lossy
Stream size : 491 MiB (100%)
Service kind : Complete Main
Audio Extraido del Bluray, Incluye Subtitulos PGS Completos y Forzados 😀
Delay Reference:
Seguro Cualquier Release Bluray Full 1080p
NOTA: El Audio del BD 4K es igualmente un EAC3 7.1 y Sincroniza Perfectamente

Frame Rate: 23.976

No Es necesario Comentar para ver los Links, Unicamente deja un "Me Gusta" 👍

AUDIO
Para ver este contenido oculto, debes dar click en una de las siguientes reacciones : Like Like, Love Love, Wow Wow
SUB PGS
Para ver este contenido oculto, debes dar click en una de las siguientes reacciones : Like Like, Love Love, Wow Wow
Un Agradecimiento especial a Nuestro Amigo Melkor por la Extraccion del audio✌️😁👍

 
Última edición:

Usuarios Que Están Viendo Este Tema (Total: 1, Miembros: 0, Invitados: 1)

Arriba