The Cabin in the Woods (2011) 720p BDRip Dual Latino-Inglés [Subt. Esp] (Terror. Fantástico)

Maestro Revolver

Well-known member
Miembro del Staff
Administrador
Registro
9 Ago 2012
Mensajes
3.569
Reacciones
59.341
Puntos
113

Reputation:









TÍTULO ORIGINAL: The Cabin in the Woods
AÑO: 2011
DURACIÓN: 105 min.
PAÍS: USA
DIRECTOR: Drew Goddard
GUIÓN: Joss Whedon, Drew Goddard
REPARTO: Kristen Connolly, Chris Hemsworth, Fran Kranz, Richard Jenkins, Bradley Whitford, Anna Hutchison, Jesse Williams, Amy Acker, Brian White, Tim De Zarn, Tom Lenk, Jodelle Ferland
PRODUCTORA: Metro-Goldwyn-Mayer (MGM)
GÉNERO: Terror. Fantástico | Comedia de terror. Zombis. Monstruos. Slasher
: http://www.imdb.com/title/tt1259521/






Cinco adolescentes se preparan para pasar el fin de semana en una remota cabaña, situada en un bosque, sin medios de comunicación con el exterior. En el sótano encuentran una extraña colección de reliquias y, entre ellas, un diario que habla de la antigua familia de psicópatas que ocupó la casa. Lo que no sospechan es que están siendo observados y que su vida corre peligro.
























La pelicula NO tiene ninguna marca... solo colocamos el nombre de esta web en las capturas






Código:
General
Format                                   : Matroska
Format version                           : Version 2
File size                                : 3.93 GiB
Duration                                 : 1h 35mn
Overall bit rate                         : 5 910 Kbps
Movie name                               : www.club-hd.com
Encoded date                             : UTC 2013-03-07 21:37:45
Writing application                      : mkvmerge v5.7.0 ('The Whirlwind') built on Jul  8 2012 20:08:51
Writing library                          : libebml v1.2.3 + libmatroska v1.3.0

Video
ID                                       : 1
Format                                   : AVC
Format/Info                              : Advanced Video Codec
Format profile                           : High@L4.1
Format settings, CABAC                   : Yes
Format settings, ReFrames                : 5 frames
Codec ID                                 : V_MPEG4/ISO/AVC
Duration                                 : 1h 35mn
Bit rate                                 : 5 082 Kbps
Width                                    : 1 280 pixels
Height                                   : 720 pixels
Display aspect ratio                     : 16:9
Frame rate mode                          : Constant
Frame rate                               : 23.976 fps
Color space                              : YUV
Chroma subsampling                       : 4:2:0
Bit depth                                : 8 bits
Scan type                                : Progressive
Bits/(Pixel*Frame)                       : 0.230
Stream size                              : 3.29 GiB (84%)
Title                                    : www.club-hd.com
Writing library                          : x264 core 125 r2208 d9d2288
Language                                 : English
Default                                  : Yes
Forced                                   : No

Audio #1
ID                                       : 2
Format                                   : AC-3
Format/Info                              : Audio Coding 3
Mode extension                           : CM (complete main)
Format settings, Endianness              : Big
Codec ID                                 : A_AC3
Duration                                 : 1h 35mn
Bit rate mode                            : Constant
Bit rate                                 : 384 Kbps
Channel(s)                               : 6 channels
Channel positions                        : Front: L C R, Side: L R, LFE
Sampling rate                            : 48.0 KHz
Bit depth                                : 16 bits
Compression mode                         : Lossy
Delay relative to video                  : 200ms
Stream size                              : 261 MiB (6%)
Title                                    : www.club-hd.com  >>  Latino
Language                                 : Spanish
Default                                  : Yes
Forced                                   : No

Audio #2
ID                                       : 3
Format                                   : AC-3
Format/Info                              : Audio Coding 3
Mode extension                           : CM (complete main)
Format settings, Endianness              : Big
Codec ID                                 : A_AC3
Duration                                 : 1h 35mn
Bit rate mode                            : Constant
Bit rate                                 : 448 Kbps
Channel(s)                               : 6 channels
Channel positions                        : Front: L C R, Side: L R, LFE
Sampling rate                            : 48.0 KHz
Bit depth                                : 16 bits
Compression mode                         : Lossy
Stream size                              : 305 MiB (8%)
Title                                    : www.club-hd.com  >>  Inglés
Language                                 : English
Default                                  : No
Forced                                   : No

Text
ID                                       : 4
Format                                   : UTF-8
Codec ID                                 : S_TEXT/UTF8
Codec ID/Info                            : UTF-8 Plain Text
Language                                 : Spanish
Default                                  : No
Forced                                   : No

Menu
00:00:00.000                             : en:00:00:00.000
00:09:10.550                             : en:00:09:10.550
00:18:42.121                             : en:00:18:42.121
00:24:21.251                             : en:00:24:21.251
00:33:08.653                             : en:00:33:08.653
00:39:39.627                             : en:00:39:39.627
00:44:18.614                             : en:00:44:18.614
00:51:25.291                             : en:00:51:25.291
01:00:24.412                             : en:01:00:24.412
01:07:18.034                             : en:01:07:18.034
01:15:44.540                             : en:01:15:44.540
01:21:32.763                             : en:01:21:32.763
01:29:54.639                             : en:01:29:54.639









Enlaces de Mega y Fireload solo disponibles para Miembros VIP

Compra tu Membresía VIP y apoya a Club-HD!

ATENCIÓN! Tenemos TODO el material de Club-HD disponible por Mega y Fireload, enlaces 100% activos y online hasta la fecha

Llévate tus cuentas Mega PRO II gratis con tu membresía VIP!
Todos los posts vivos con links de Mega y Fireload.
Todo el material de Club-HD desbloqueado y sin publicidad.

Click Aquí para más información.



Enlaces de Mega y Fireload solo disponibles para Miembros VIP

Compra tu Membresía VIP y apoya a Club-HD!

ATENCIÓN! Tenemos TODO el material de Club-HD disponible por Mega y Fireload, enlaces 100% activos y online hasta la fecha

Llévate tus cuentas Mega PRO II gratis con tu membresía VIP!
Todos los posts vivos con links de Mega y Fireload.
Todo el material de Club-HD desbloqueado y sin publicidad.

Click Aquí para más información.



Para ver este contenido oculto, debes dar click en una de las siguientes reacciones : Like Like, Love Love, Haha Haha, Wow Wow, Sad Sad, Angry Angry

 
Última edición:

sharklui

Well-known member
Miembro VIP
Registro
28 Ago 2012
Mensajes
1.026
Reacciones
271
Puntos
83
Ubicación
The Matrix

Reputation:

:aplausos:

Revolver, nos compartes de todos los generos pero sin bajar la guardia con la alta calidad, la gran variedad nos hace sentir a todos tenidos en cuenta. :aplausos:

Bendiciones para ti y muchos exitos en esta ardua tarea de compartir y luchar por un internet libre !!! :LXR:
 

DoomsDay Elite

Well-known member
Registro
5 Sep 2012
Mensajes
1.225
Reacciones
1.101
Puntos
113

Reputation:

siempre he querido ver esta pelicula gracias r21 vamos a ver si la tengo descargada para mañana para asustar un poco a mi novia :crcjd:
 

zacygal

Well-known member
Registro
3 Sep 2012
Mensajes
1.515
Reacciones
1.536
Puntos
113
Edad
49

Reputation:

la staba sperando en Dual, se agradece ...
 

gregper

New member
Registro
28 Ago 2012
Mensajes
406
Reacciones
83
Puntos
0
Edad
38
Ubicación
Venezuela, Estado Zulia

Reputation:

Gracias Maestro por brindarnos tantos aportes de forma seguida, complaciendo peticiones... Saludos y Exitos! Tb_up3
 

Usuarios Que Están Viendo Este Tema (Total: 1, Miembros: 0, Invitados: 1)

Arriba