• Este aviso va dirigido a todos los nuevos miembros recien llegados a Club-HD. Les recordamos que la direccion URL de este sitio web es , asi que deben acceder únicamente por esta URL. Sean todos bienvenidos al Club!

The Call of the Wild (2020) 1080p BDRip Dual Latino-Inglés [Subt. Esp]

Flaco

Well-known member
Miembro del Staff
Moderador
Uploader
Registrado
25 May 2015
Mensajes
590
Puntos de reacción
2,658
Puntos
93
Ubicación
Lima, Perú





Título original: The Call of the Wild
Año: 2020
Duración: 100 min.
País: Estados Unidos
Dirección: Chris Sanders
Guion: Michael Green (Novela: Jack London)
Música: John Powell
Fotografía: Janusz Kaminski
Reparto: Harrison Ford, Omar Sy, Dan Stevens, Bradley Whitford, Karen Gillan, Jean Louisa Kelly, Terry Notary, Cara Gee, Colin Woodell, Wes Brown, Anthony Molinari, Brad Greenquist, Adam Fergus, Alex Solowitz, Scott MacDonald, Karl Makinen, Micah Fitzgerald, Kirk Geiger, Chris Graham, Andrew Sykes, P.J. King, Hal Dion, Sherwin Ace Ross, Dillon Daniel, Chris McLaughlin, Paul Mabon, Preston Bailey, Stephanie Czajkowski, Michael Horse, Chase Victoria
Productora: Distribuida por 20th Century Studios. 3 Arts Entertainment, 20th Century Studios
Género: Aventuras | Siglo XIX. Animales. Naturaleza. Perros/Lobos

The Call of the Wild (2020)





Cuenta la historia de Buck, un perro bonachón cuya vida cambia de la noche a la mañana cuando su dueño se muda de California a los exóticos parajes de Alaska, durante la fiebre del oro, a finales del siglo XIX. Como novato de un grupo de perros de trineo (y posteriormente su líder), Buck experimenta una aventura que jamás olvidará, encontrando su lugar en el mundo y convirtiéndose así en su propio amo.​









Código:
General
Complete name                            : The Call of the Wild (2020) 1080p Dual.mkv
Format                                   : Matroska
Format version                           : Version 4
File size                                : 17.3 GiB
Duration                                 : 1 h 39 min
Overall bit rate mode                    : Variable
Overall bit rate                         : 24.8 Mb/s
Movie name                               : The Call of the Wild (2020) 1080p Dual
Encoded date                             : UTC 2020-06-16 07:26:46
Writing application                      : mkvmerge v33.0.0 ('A Little Bit of Madness') 64-bit
Writing library                          : libebml v1.3.7 + libmatroska v1.5.0
Cover                                    : Yes
Attachments                              : cover_land.jpg / small_cover.jpg / small_cover_land.jpg / cover.jpg

Video
ID                                       : 1
Format                                   : AVC
Format/Info                              : Advanced Video Codec
Format profile                           : High@L4.1
Format settings                          : CABAC / 5 Ref Frames
Format settings, CABAC                   : Yes
Format settings, Reference frames        : 5 frames
Codec ID                                 : V_MPEG4/ISO/AVC
Duration                                 : 1 h 39 min
Bit rate                                 : 14.4 Mb/s
Width                                    : 1 920 pixels
Height                                   : 802 pixels
Display aspect ratio                     : 2.40:1
Frame rate mode                          : Constant
Frame rate                               : 23.976 (24000/1001) FPS
Color space                              : YUV
Chroma subsampling                       : 4:2:0
Bit depth                                : 8 bits
Scan type                                : Progressive
Bits/(Pixel*Frame)                       : 0.390
Stream size                              : 10.0 GiB (58%)
Title                                    : The Call of the Wild (2020) 1080p Dual
Writing library                          : x264 core 157 r2935 545de2f
Encoding settings                        : cabac=1 / ref=5 / deblock=1:-1:-1 / analyse=0x3:0x133 / me=umh / subme=10 / psy=1 / psy_rd=1.00:0.15 / mixed_ref=1 / me_range=48 / chroma_me=1 / trellis=2 / 8x8dct=1 / cqm=0 / deadzone=21,11 / fast_pskip=1 / chroma_qp_offset=-3 / threads=25 / lookahead_threads=4 / sliced_threads=0 / nr=0 / decimate=0 / interlaced=0 / bluray_compat=0 / constrained_intra=0 / bframes=8 / b_pyramid=2 / b_adapt=2 / b_bias=0 / direct=3 / weightb=1 / open_gop=0 / weightp=2 / keyint=250 / keyint_min=23 / scenecut=40 / intra_refresh=0 / rc_lookahead=60 / rc=crf / mbtree=1 / crf=13.0 / qcomp=0.60 / qpmin=0 / qpmax=69 / qpstep=4 / ip_ratio=1.40 / aq=1:1.00
Language                                 : English
Default                                  : Yes
Forced                                   : No

Audio #1
ID                                       : 2
Format                                   : AC-3
Format/Info                              : Audio Coding 3
Commercial name                          : Dolby Digital
Codec ID                                 : A_AC3
Duration                                 : 1 h 39 min
Bit rate mode                            : Constant
Bit rate                                 : 640 kb/s
Channel(s)                               : 6 channels
Channel layout                           : L R C LFE Ls Rs
Sampling rate                            : 48.0 kHz
Frame rate                               : 31.250 FPS (1536 SPF)
Compression mode                         : Lossy
Stream size                              : 456 MiB (3%)
Title                                    : Latino AC3 5.1
Language                                 : Spanish
Service kind                             : Complete Main
Default                                  : Yes
Forced                                   : No

Audio #2
ID                                       : 3
Format                                   : E-AC-3
Format/Info                              : Enhanced AC-3
Commercial name                          : Dolby Digital Plus
Format profile                           : Blu-ray Disc
Codec ID                                 : A_EAC3
Duration                                 : 1 h 39 min
Bit rate mode                            : Constant
Bit rate                                 : 1 024 kb/s
Channel(s)                               : 8 channels
Channel layout                           : L R C LFE Ls Rs Lb Rb
Sampling rate                            : 48.0 kHz
Frame rate                               : 31.250 FPS (1536 SPF)
Compression mode                         : Lossy
Stream size                              : 730 MiB (4%)
Title                                    : Latino E-AC3 7.1
Language                                 : Spanish
Service kind                             : Complete Main
Default                                  : No
Forced                                   : No

Audio #3
ID                                       : 4
Format                                   : AC-3
Format/Info                              : Audio Coding 3
Commercial name                          : Dolby Digital
Codec ID                                 : A_AC3
Duration                                 : 1 h 39 min
Bit rate mode                            : Constant
Bit rate                                 : 640 kb/s
Channel(s)                               : 6 channels
Channel layout                           : L R C LFE Ls Rs
Sampling rate                            : 48.0 kHz
Frame rate                               : 31.250 FPS (1536 SPF)
Compression mode                         : Lossy
Stream size                              : 456 MiB (3%)
Title                                    : Inglés AC3 5.1
Language                                 : English
Service kind                             : Complete Main
Default                                  : No
Forced                                   : No

Audio #4
ID                                       : 5
Format                                   : MLP FBA 16-ch
Format/Info                              : Meridian Lossless Packing FBA with 16-channel presentation
Commercial name                          : Dolby TrueHD with Dolby Atmos
Codec ID                                 : A_TRUEHD
Duration                                 : 1 h 39 min
Bit rate mode                            : Variable
Bit rate                                 : 8 045 kb/s
Maximum bit rate                         : 12.5 Mb/s
Channel(s)                               : 8 channels
Channel layout                           : L R C LFE Ls Rs Lb Rb
Sampling rate                            : 48.0 kHz
Frame rate                               : 1 200.000 FPS (40 SPF)
Compression mode                         : Lossless
Stream size                              : 5.60 GiB (32%)
Title                                    : Inglés TrueHD 7.1
Language                                 : English
Default                                  : No
Forced                                   : No
Number of dynamic objects                : 13
Bed channel count                        : 1 channel
Bed channel configuration                : LFE

Text #1
ID                                       : 6
Format                                   : UTF-8
Codec ID                                 : S_TEXT/UTF8
Codec ID/Info                            : UTF-8 Plain Text
Duration                                 : 1 h 30 min
Bit rate                                 : 0 b/s
Count of elements                        : 7
Stream size                              : 166 Bytes (0%)
Title                                    : Forzado
Language                                 : Spanish
Default                                  : Yes
Forced                                   : Yes

Text #2
ID                                       : 7
Format                                   : UTF-8
Codec ID                                 : S_TEXT/UTF8
Codec ID/Info                            : UTF-8 Plain Text
Duration                                 : 1 h 31 min
Bit rate                                 : 24 b/s
Count of elements                        : 767
Stream size                              : 16.4 KiB (0%)
Title                                    : Latino
Language                                 : Spanish
Default                                  : No
Forced                                   : No

Text #3
ID                                       : 8
Format                                   : UTF-8
Codec ID                                 : S_TEXT/UTF8
Codec ID/Info                            : UTF-8 Plain Text
Duration                                 : 1 h 34 min
Bit rate                                 : 25 b/s
Count of elements                        : 846
Stream size                              : 17.8 KiB (0%)
Title                                    : Inglés
Language                                 : English
Default                                  : No
Forced                                   : No

Text #4
ID                                       : 9
Format                                   : PGS
Muxing mode                              : zlib
Codec ID                                 : S_HDMV/PGS
Codec ID/Info                            : Picture based subtitle format used on BDs/HD-DVDs
Duration                                 : 4 s 713 ms
Bit rate                                 : 24.7 kb/s
Count of elements                        : 2
Stream size                              : 14.2 KiB (0%)
Title                                    : Forzado PGS
Language                                 : Spanish
Default                                  : No
Forced                                   : No

Text #5
ID                                       : 10
Format                                   : PGS
Muxing mode                              : zlib
Codec ID                                 : S_HDMV/PGS
Codec ID/Info                            : Picture based subtitle format used on BDs/HD-DVDs
Duration                                 : 1 h 38 min
Bit rate                                 : 14.3 kb/s
Count of elements                        : 1536
Stream size                              : 10.1 MiB (0%)
Title                                    : Latino PGS
Language                                 : Spanish
Default                                  : No
Forced                                   : No

Text #6
ID                                       : 11
Format                                   : PGS
Muxing mode                              : zlib
Codec ID                                 : S_HDMV/PGS
Codec ID/Info                            : Picture based subtitle format used on BDs/HD-DVDs
Duration                                 : 1 h 34 min
Bit rate                                 : 26.7 kb/s
Count of elements                        : 2500
Stream size                              : 18.1 MiB (0%)
Title                                    : Inglés PGS
Language                                 : English
Default                                  : No
Forced                                   : No

Menu
00:00:00.000                             : en:Chapter 1
00:03:35.549                             : en:Chapter 2
00:05:58.275                             : en:Chapter 3
00:10:31.005                             : en:Chapter 4
00:15:49.365                             : en:Chapter 5
00:19:03.517                             : en:Chapter 6
00:23:29.199                             : en:Chapter 7
00:27:28.021                             : en:Chapter 8
00:32:27.487                             : en:Chapter 9
00:34:32.195                             : en:Chapter 10
00:41:43.459                             : en:Chapter 11
00:46:14.188                             : en:Chapter 12
00:50:07.004                             : en:Chapter 13
00:55:15.229                             : en:Chapter 14
01:00:30.585                             : en:Chapter 15
01:04:04.299                             : en:Chapter 16
01:07:46.646                             : en:Chapter 17
01:12:38.229                             : en:Chapter 18
01:17:02.618                             : en:Chapter 19
01:19:24.885                             : en:Chapter 20
01:23:06.773                             : en:Chapter 21
01:26:20.884                             : en:Chapter 22
01:29:25.860                             : en:Chapter 23
01:32:22.287                             : en:Chapter 24
Gracias a nuestro amigo Clasaase, que se tomo el trabajo en armar este aporte.



























Todos los links son Intercambiables!


Enlaces de Mega y Google Drive solo disponibles para Miembros VIP

Compra tu Membresía VIP y apoya a Club-HD!

ATENCIÓN! Tenemos TODO el material de Club-HD disponible por Mega y Google Drive, enlaces 100% activos y online hasta la fecha

Llévate tus cuentas Mega PRO II gratis con tu membresía VIP!
Todos los posts vivos con links de Mega y Google Drive.
Todo el material de Club-HD desbloqueado y sin publicidad.

Click Aquí para más información.

Enlaces de Mega y Google Drive solo disponibles para Miembros VIP

Compra tu Membresía VIP y apoya a Club-HD!

ATENCIÓN! Tenemos TODO el material de Club-HD disponible por Mega y Google Drive, enlaces 100% activos y online hasta la fecha

Llévate tus cuentas Mega PRO II gratis con tu membresía VIP!
Todos los posts vivos con links de Mega y Google Drive.
Todo el material de Club-HD desbloqueado y sin publicidad.

Click Aquí para más información.

Para ver este contenido oculto, debes dar click en una de las siguientes reacciones: Like Like, Love Love, Haha Haha, Wow Wow, Sad Sad, Angry Angry

Para ver este contenido oculto, debes dar click en una de las siguientes reacciones: Like Like, Love Love, Haha Haha, Wow Wow, Sad Sad, Angry Angry

Para ver este contenido oculto, debes dar click en una de las siguientes reacciones: Like Like, Love Love, Haha Haha, Wow Wow, Sad Sad, Angry Angry
 
Última edición por un moderador:

jc7524

Member
Registrado
23 Oct 2012
Mensajes
649
Puntos de reacción
11
Puntos
18





Título original: The Call of the Wild
Año: 2020
Duración: 100 min.
País: Estados Unidos
Dirección: Chris Sanders
Guion: Michael Green (Novela: Jack London)
Música: John Powell
Fotografía: Janusz Kaminski
Reparto: Harrison Ford, Omar Sy, Dan Stevens, Bradley Whitford, Karen Gillan, Jean Louisa Kelly, Terry Notary, Cara Gee, Colin Woodell, Wes Brown, Anthony Molinari, Brad Greenquist, Adam Fergus, Alex Solowitz, Scott MacDonald, Karl Makinen, Micah Fitzgerald, Kirk Geiger, Chris Graham, Andrew Sykes, P.J. King, Hal Dion, Sherwin Ace Ross, Dillon Daniel, Chris McLaughlin, Paul Mabon, Preston Bailey, Stephanie Czajkowski, Michael Horse, Chase Victoria
Productora: Distribuida por 20th Century Studios. 3 Arts Entertainment, 20th Century Studios
Género: Aventuras | Siglo XIX. Animales. Naturaleza. Perros/Lobos

The Call of the Wild (2020)





Cuenta la historia de Buck, un perro bonachón cuya vida cambia de la noche a la mañana cuando su dueño se muda de California a los exóticos parajes de Alaska, durante la fiebre del oro, a finales del siglo XIX. Como novato de un grupo de perros de trineo (y posteriormente su líder), Buck experimenta una aventura que jamás olvidará, encontrando su lugar en el mundo y convirtiéndose así en su propio amo.​









Código:
General
Complete name                            : The Call of the Wild (2020) 1080p Dual.mkv
Format                                   : Matroska
Format version                           : Version 4
File size                                : 17.3 GiB
Duration                                 : 1 h 39 min
Overall bit rate mode                    : Variable
Overall bit rate                         : 24.8 Mb/s
Movie name                               : The Call of the Wild (2020) 1080p Dual
Encoded date                             : UTC 2020-06-16 07:26:46
Writing application                      : mkvmerge v33.0.0 ('A Little Bit of Madness') 64-bit
Writing library                          : libebml v1.3.7 + libmatroska v1.5.0
Cover                                    : Yes
Attachments                              : cover_land.jpg / small_cover.jpg / small_cover_land.jpg / cover.jpg

Video
ID                                       : 1
Format                                   : AVC
Format/Info                              : Advanced Video Codec
Format profile                           : High@L4.1
Format settings                          : CABAC / 5 Ref Frames
Format settings, CABAC                   : Yes
Format settings, Reference frames        : 5 frames
Codec ID                                 : V_MPEG4/ISO/AVC
Duration                                 : 1 h 39 min
Bit rate                                 : 14.4 Mb/s
Width                                    : 1 920 pixels
Height                                   : 802 pixels
Display aspect ratio                     : 2.40:1
Frame rate mode                          : Constant
Frame rate                               : 23.976 (24000/1001) FPS
Color space                              : YUV
Chroma subsampling                       : 4:2:0
Bit depth                                : 8 bits
Scan type                                : Progressive
Bits/(Pixel*Frame)                       : 0.390
Stream size                              : 10.0 GiB (58%)
Title                                    : The Call of the Wild (2020) 1080p Dual
Writing library                          : x264 core 157 r2935 545de2f
Encoding settings                        : cabac=1 / ref=5 / deblock=1:-1:-1 / analyse=0x3:0x133 / me=umh / subme=10 / psy=1 / psy_rd=1.00:0.15 / mixed_ref=1 / me_range=48 / chroma_me=1 / trellis=2 / 8x8dct=1 / cqm=0 / deadzone=21,11 / fast_pskip=1 / chroma_qp_offset=-3 / threads=25 / lookahead_threads=4 / sliced_threads=0 / nr=0 / decimate=0 / interlaced=0 / bluray_compat=0 / constrained_intra=0 / bframes=8 / b_pyramid=2 / b_adapt=2 / b_bias=0 / direct=3 / weightb=1 / open_gop=0 / weightp=2 / keyint=250 / keyint_min=23 / scenecut=40 / intra_refresh=0 / rc_lookahead=60 / rc=crf / mbtree=1 / crf=13.0 / qcomp=0.60 / qpmin=0 / qpmax=69 / qpstep=4 / ip_ratio=1.40 / aq=1:1.00
Language                                 : English
Default                                  : Yes
Forced                                   : No

Audio #1
ID                                       : 2
Format                                   : AC-3
Format/Info                              : Audio Coding 3
Commercial name                          : Dolby Digital
Codec ID                                 : A_AC3
Duration                                 : 1 h 39 min
Bit rate mode                            : Constant
Bit rate                                 : 640 kb/s
Channel(s)                               : 6 channels
Channel layout                           : L R C LFE Ls Rs
Sampling rate                            : 48.0 kHz
Frame rate                               : 31.250 FPS (1536 SPF)
Compression mode                         : Lossy
Stream size                              : 456 MiB (3%)
Title                                    : Latino AC3 5.1
Language                                 : Spanish
Service kind                             : Complete Main
Default                                  : Yes
Forced                                   : No

Audio #2
ID                                       : 3
Format                                   : E-AC-3
Format/Info                              : Enhanced AC-3
Commercial name                          : Dolby Digital Plus
Format profile                           : Blu-ray Disc
Codec ID                                 : A_EAC3
Duration                                 : 1 h 39 min
Bit rate mode                            : Constant
Bit rate                                 : 1 024 kb/s
Channel(s)                               : 8 channels
Channel layout                           : L R C LFE Ls Rs Lb Rb
Sampling rate                            : 48.0 kHz
Frame rate                               : 31.250 FPS (1536 SPF)
Compression mode                         : Lossy
Stream size                              : 730 MiB (4%)
Title                                    : Latino E-AC3 7.1
Language                                 : Spanish
Service kind                             : Complete Main
Default                                  : No
Forced                                   : No

Audio #3
ID                                       : 4
Format                                   : AC-3
Format/Info                              : Audio Coding 3
Commercial name                          : Dolby Digital
Codec ID                                 : A_AC3
Duration                                 : 1 h 39 min
Bit rate mode                            : Constant
Bit rate                                 : 640 kb/s
Channel(s)                               : 6 channels
Channel layout                           : L R C LFE Ls Rs
Sampling rate                            : 48.0 kHz
Frame rate                               : 31.250 FPS (1536 SPF)
Compression mode                         : Lossy
Stream size                              : 456 MiB (3%)
Title                                    : Inglés AC3 5.1
Language                                 : English
Service kind                             : Complete Main
Default                                  : No
Forced                                   : No

Audio #4
ID                                       : 5
Format                                   : MLP FBA 16-ch
Format/Info                              : Meridian Lossless Packing FBA with 16-channel presentation
Commercial name                          : Dolby TrueHD with Dolby Atmos
Codec ID                                 : A_TRUEHD
Duration                                 : 1 h 39 min
Bit rate mode                            : Variable
Bit rate                                 : 8 045 kb/s
Maximum bit rate                         : 12.5 Mb/s
Channel(s)                               : 8 channels
Channel layout                           : L R C LFE Ls Rs Lb Rb
Sampling rate                            : 48.0 kHz
Frame rate                               : 1 200.000 FPS (40 SPF)
Compression mode                         : Lossless
Stream size                              : 5.60 GiB (32%)
Title                                    : Inglés TrueHD 7.1
Language                                 : English
Default                                  : No
Forced                                   : No
Number of dynamic objects                : 13
Bed channel count                        : 1 channel
Bed channel configuration                : LFE

Text #1
ID                                       : 6
Format                                   : UTF-8
Codec ID                                 : S_TEXT/UTF8
Codec ID/Info                            : UTF-8 Plain Text
Duration                                 : 1 h 30 min
Bit rate                                 : 0 b/s
Count of elements                        : 7
Stream size                              : 166 Bytes (0%)
Title                                    : Forzado
Language                                 : Spanish
Default                                  : Yes
Forced                                   : Yes

Text #2
ID                                       : 7
Format                                   : UTF-8
Codec ID                                 : S_TEXT/UTF8
Codec ID/Info                            : UTF-8 Plain Text
Duration                                 : 1 h 31 min
Bit rate                                 : 24 b/s
Count of elements                        : 767
Stream size                              : 16.4 KiB (0%)
Title                                    : Latino
Language                                 : Spanish
Default                                  : No
Forced                                   : No

Text #3
ID                                       : 8
Format                                   : UTF-8
Codec ID                                 : S_TEXT/UTF8
Codec ID/Info                            : UTF-8 Plain Text
Duration                                 : 1 h 34 min
Bit rate                                 : 25 b/s
Count of elements                        : 846
Stream size                              : 17.8 KiB (0%)
Title                                    : Inglés
Language                                 : English
Default                                  : No
Forced                                   : No

Text #4
ID                                       : 9
Format                                   : PGS
Muxing mode                              : zlib
Codec ID                                 : S_HDMV/PGS
Codec ID/Info                            : Picture based subtitle format used on BDs/HD-DVDs
Duration                                 : 4 s 713 ms
Bit rate                                 : 24.7 kb/s
Count of elements                        : 2
Stream size                              : 14.2 KiB (0%)
Title                                    : Forzado PGS
Language                                 : Spanish
Default                                  : No
Forced                                   : No

Text #5
ID                                       : 10
Format                                   : PGS
Muxing mode                              : zlib
Codec ID                                 : S_HDMV/PGS
Codec ID/Info                            : Picture based subtitle format used on BDs/HD-DVDs
Duration                                 : 1 h 38 min
Bit rate                                 : 14.3 kb/s
Count of elements                        : 1536
Stream size                              : 10.1 MiB (0%)
Title                                    : Latino PGS
Language                                 : Spanish
Default                                  : No
Forced                                   : No

Text #6
ID                                       : 11
Format                                   : PGS
Muxing mode                              : zlib
Codec ID                                 : S_HDMV/PGS
Codec ID/Info                            : Picture based subtitle format used on BDs/HD-DVDs
Duration                                 : 1 h 34 min
Bit rate                                 : 26.7 kb/s
Count of elements                        : 2500
Stream size                              : 18.1 MiB (0%)
Title                                    : Inglés PGS
Language                                 : English
Default                                  : No
Forced                                   : No

Menu
00:00:00.000                             : en:Chapter 1
00:03:35.549                             : en:Chapter 2
00:05:58.275                             : en:Chapter 3
00:10:31.005                             : en:Chapter 4
00:15:49.365                             : en:Chapter 5
00:19:03.517                             : en:Chapter 6
00:23:29.199                             : en:Chapter 7
00:27:28.021                             : en:Chapter 8
00:32:27.487                             : en:Chapter 9
00:34:32.195                             : en:Chapter 10
00:41:43.459                             : en:Chapter 11
00:46:14.188                             : en:Chapter 12
00:50:07.004                             : en:Chapter 13
00:55:15.229                             : en:Chapter 14
01:00:30.585                             : en:Chapter 15
01:04:04.299                             : en:Chapter 16
01:07:46.646                             : en:Chapter 17
01:12:38.229                             : en:Chapter 18
01:17:02.618                             : en:Chapter 19
01:19:24.885                             : en:Chapter 20
01:23:06.773                             : en:Chapter 21
01:26:20.884                             : en:Chapter 22
01:29:25.860                             : en:Chapter 23
01:32:22.287                             : en:Chapter 24
Gracias a nuestro amigo Clasaase, que se tomo el trabajo en armar este aporte.



























Todos los links son Intercambiables!


[Hidden content]


[Hidden content]


[Hidden content]


[Hidden content]


[Hidden content]
Gracias por el aporte..
 

jererado

Active member
Registrado
11 Jul 2014
Mensajes
910
Puntos de reacción
47
Puntos
28
Gracias por el aporte , excelente
 

ERRE

Well-known member
Registrado
28 Ago 2012
Mensajes
2,213
Puntos de reacción
164
Puntos
63
Gracias...😄
 

cripp

Well-known member
Registrado
27 Ago 2012
Mensajes
8,059
Puntos de reacción
463
Puntos
113
Gracias por compartir
 

Usuarios Que Están Viendo Este Tema (Total: 1, Miembros: 0, Invitados: 1)

Arriba