The Campaign (2012) EXTENDED m-720p Audio Inglés [Subt. Esp-Ing] (Comedia)

Maestro Revolver

Administrador
Registro
9 Ago 2012
Mensajes
3.157
Reacciones (ptje)
55.034


The-Campaign.jpg




FICHA_TECNICA.png


TÍTULO ORIGINAL: The Campaign
AÑO: 2012
DURACIÓN: 85 min.
PAÍS: USA
DIRECTOR: Jay Roach
GUIÓN: Chris Henchy, Shawn Harwell
REPARTO: Will Ferrell, Zach Galifianakis, Jason Sudeikis, Sarah Baker, John Goodman, Dylan McDermott, Katherine LaNasa, Brian Cox, John Lithgow, Dan Aykroyd, Scott A. Martin, Thomas Middleditch, Josh Lawson
PRODUCTORA: Warner Bros. Pictures / Everyman Pictures / Gary Sanchez Productions
GÉNERO: Comedia | Política
imdb-logo.png
http://www.imdb.com/title/tt1790886/




SINOPSIS.png


En Carolina del Norte, dos aspirantes a la presidencia de los Estados Unidos se enfrentan en campaña electoral. Para el congresista Cam Brady (Will Ferrell) es la primera vez en su carrera que tiene que hacer frente a otro candidato: Marty Huggins (Zach Galifianakis), inconsciente títere de las grandes empresas y gerente de la oficina de turismo local.




TRAILER.png






CAPTURAS.png


1.jpg


2.jpg


3.jpg


4.jpg


5.jpg


6.jpg


La pelicula NO tiene ninguna marca... solo colocamos el nombre de esta web en las capturas




DATOS_TECNICOS.png


Código:
General
Format                           : Matroska
Format version                   : Version 2
File size                        : 2.10 GiB
Duration                         : 1h 35mn
Overall bit rate                 : 3 144 Kbps
Movie name                       : www.club-hd.com
Encoded date                     : UTC 2012-10-23 15:46:58
Writing application              : mkvmerge v5.7.0 ('The Whirlwind') built on Jul  8 2012 20:08:51
Writing library                  : libebml v1.2.3 + libmatroska v1.3.0

Video
ID                               : 1
Format                           : AVC
Format/Info                      : Advanced Video Codec
Format profile                   : [email protected]
Format settings, CABAC           : Yes
Format settings, ReFrames        : 8 frames
Codec ID                         : V_MPEG4/ISO/AVC
Duration                         : 1h 35mn
Bit rate                         : 2 700 Kbps
Width                            : 1 280 pixels
Height                           : 720 pixels
Display aspect ratio             : 16:9
Frame rate                       : 23.976 fps
Color space                      : YUV
Chroma subsampling               : 4:2:0
Bit depth                        : 8 bits
Scan type                        : Progressive
Bits/(Pixel*Frame)               : 0.122
Stream size                      : 1.76 GiB (84%)
Title                            : www.club-hd.com
Writing library                  : x264 core 128 r2216 198a7ea
Language                         : English
Default                          : Yes
Forced                           : No

Audio
ID                               : 2
Format                           : AC-3
Format/Info                      : Audio Coding 3
Mode extension                   : CM (complete main)
Codec ID                         : A_AC3
Duration                         : 1h 35mn
Bit rate mode                    : Constant
Bit rate                         : 448 Kbps
Channel(s)                       : 6 channels
Channel positions                : Front: L C R, Side: L R, LFE
Sampling rate                    : 48.0 KHz
Bit depth                        : 16 bits
Compression mode                 : Lossy
Stream size                      : 307 MiB (14%)
Title                            : www.club-hd.com
Language                         : English
Default                          : Yes
Forced                           : No

Text #1
ID                               : 3
Format                           : UTF-8
Codec ID                         : S_TEXT/UTF8
Codec ID/Info                    : UTF-8 Plain Text
Language                         : Spanish
Default                          : Yes
Forced                           : No

Text #2
ID                               : 4
Format                           : UTF-8
Codec ID                         : S_TEXT/UTF8
Codec ID/Info                    : UTF-8 Plain Text
Language                         : English
Default                          : No
Forced                           : No

Menu
00:00:00.000                     : en:Chapter 1
00:09:42.582                     : en:Chapter 2
00:20:13.295                     : en:Chapter 3
00:32:16.393                     : en:Chapter 4
00:41:10.635                     : en:Chapter 5
00:55:30.744                     : en:Chapter 6
01:09:48.726                     : en:Chapter 7
01:19:46.448                     : en:Chapter 8
01:30:53.198                     : en:Chapter 9




Descarga.png




google-drive-vip.png


Tenemos TODO el material de Club-HD disponible por Mega, enlaces 100% activos y online hasta la fecha

Llévate tus cuentas Mega PRO III gratis con tu membresía VIP!
Todos los posts vivos con links de Mega.
Todo el material de Club-HD desbloqueado y sin publicidad.

Obtén más información sobre nuestras Membresías VIP




MEGA.jpg

Tenemos TODO el material de Club-HD disponible por Mega, enlaces 100% activos y online hasta la fecha

Llévate tus cuentas Mega PRO III gratis con tu membresía VIP!
Todos los posts vivos con links de Mega.
Todo el material de Club-HD desbloqueado y sin publicidad.

Obtén más información sobre nuestras Membresías VIP


UPLOADED.TO_BANNER.png

Para ver este contenido oculto, debes dar click en el botón"Like", o cualquiera de las otras reacciones:

Me Gusta Me Gusta, Me Encanta Me Encanta, Jaja Jaja, Wow Wow, Triste Triste, Molesto Molesto

 
Última edición:
excelente aporte :LXR: estoy muy agradecido de esta pagina :LXR::LXR:
 
Volver