The Chronicles of Riddick (2004) Director's cut 1080p BDRip Dual Latino-Inglés [Subt. Esp] (Ciencia ficción. Acción)

Maestro Revolver

Well-known member
Miembro del Staff
Administrador
Registro
9 Ago 2012
Mensajes
3.567






TÍTULO ORIGINAL: The Chronicles of Riddick
AÑO: 2004
DURACIÓN: 115 min.
PAÍS: USA
DIRECTOR: David Twohy
GUIÓN: David Twohy (Personajes: Jim Wheat & Ken Wheat)
REPARTO: Vin Diesel, Thandie Newton, Judi Dench, Karl Urban, Colm Feore, Linus Roache, Keith David, Yorick van Wageningen, Alexa Davalos
PRODUCTORA: Universal Pictures
GÉNERO: Ciencia ficción. Acción | Extraterrestres. Secuela
: http://www.imdb.com/title/tt0296572/






Riddick se ha pasado los últimos cinco años vagando por los mundos olvidados de la galaxia, evitando a los mercenarios que buscan su cabeza. Ahora, el fugitivo se encuentra en el planeta Helion, hogar de una sociedad progresista y multicultural que ha sido invadida por Lord Marshal, un déspota que utiliza a los humanos a merced de su ejército de guerreros conocidos como Necromongers.






























La pelicula NO tiene ninguna marca... solo colocamos el nombre de esta web en las capturas






Código:
General
Format                                   : Matroska
Format version                           : Version 2
File size                                : 11.5 GiB
Duration                                 : 2h 14mn
Overall bit rate mode                    : Variable
Overall bit rate                         : 12.3 Mbps
Movie name                               : www.club-hd.com
Encoded date                             : UTC 2013-07-26 22:03:33
Writing application                      : mkvmerge v5.7.0 ('The Whirlwind') built on Jul  8 2012 20:08:51
Writing library                          : libebml v1.2.3 + libmatroska v1.3.0

Video
ID                                       : 1
Format                                   : AVC
Format/Info                              : Advanced Video Codec
Format profile                           : High@L4.1
Format settings, CABAC                   : Yes
Format settings, ReFrames                : 5 frames
Codec ID                                 : V_MPEG4/ISO/AVC
Duration                                 : 2h 14mn
Bit rate                                 : 9 637 Kbps
Width                                    : 1 920 pixels
Height                                   : 800 pixels
Display aspect ratio                     : 2.40:1
Frame rate mode                          : Constant
Frame rate                               : 23.976 fps
Color space                              : YUV
Chroma subsampling                       : 4:2:0
Bit depth                                : 8 bits
Scan type                                : Progressive
Bits/(Pixel*Frame)                       : 0.262
Stream size                              : 8.79 GiB (76%)
Title                                    : www.club-hd.com
Writing library                          : x264 core 116 r2044 392e762
Language                                 : English
Default                                  : Yes
Forced                                   : No

Audio #1
ID                                       : 2
Format                                   : AC-3
Format/Info                              : Audio Coding 3
Mode extension                           : CM (complete main)
Format settings, Endianness              : Big
Codec ID                                 : A_AC3
Duration                                 : 2h 14mn
Bit rate mode                            : Constant
Bit rate                                 : 448 Kbps
Channel(s)                               : 6 channels
Channel positions                        : Front: L C R, Side: L R, LFE
Sampling rate                            : 48.0 KHz
Bit depth                                : 16 bits
Compression mode                         : Lossy
Stream size                              : 430 MiB (4%)
Title                                    : www.club-hd.com  >>  Latino AC3 5.1
Language                                 : Spanish
Default                                  : Yes
Forced                                   : No

Audio #2
ID                                       : 3
Format                                   : AC-3
Format/Info                              : Audio Coding 3
Mode extension                           : CM (complete main)
Format settings, Endianness              : Big
Codec ID                                 : A_AC3
Duration                                 : 2h 14mn
Bit rate mode                            : Constant
Bit rate                                 : 640 Kbps
Channel(s)                               : 6 channels
Channel positions                        : Front: L C R, Side: L R, LFE
Sampling rate                            : 48.0 KHz
Bit depth                                : 16 bits
Compression mode                         : Lossy
Stream size                              : 614 MiB (5%)
Title                                    : www.club-hd.com  >>  Inglés AC3 5.1
Language                                 : English
Default                                  : No
Forced                                   : No

Audio #3
ID                                       : 4
Format                                   : DTS
Format/Info                              : Digital Theater Systems
Mode                                     : 16
Format settings, Endianness              : Big
Codec ID                                 : A_DTS
Duration                                 : 2h 14mn
Bit rate mode                            : Constant
Bit rate                                 : 1 509 Kbps
Channel(s)                               : 6 channels
Channel positions                        : Front: L C R, Side: L R, LFE
Sampling rate                            : 48.0 KHz
Bit depth                                : 24 bits
Compression mode                         : Lossy
Stream size                              : 1.41 GiB (12%)
Title                                    : www.club-hd.com  >>  Inglés DTS 5.1
Language                                 : English
Default                                  : No
Forced                                   : No

Audio #4
ID                                       : 5
Format                                   : Vorbis
Format settings, Floor                   : 1
Codec ID                                 : A_VORBIS
Duration                                 : 2h 14mn
Bit rate mode                            : Variable
Bit rate                                 : 64.0 Kbps
Channel(s)                               : 2 channels
Sampling rate                            : 48.0 KHz
Compression mode                         : Lossy
Stream size                              : 61.4 MiB (1%)
Title                                    : Commentary
Writing library                          : libVorbis (Schaufenugget) (20101101 (Schaufenugget))
Language                                 : English
Default                                  : No
Forced                                   : No

Text
ID                                       : 6
Format                                   : UTF-8
Codec ID                                 : S_TEXT/UTF8
Codec ID/Info                            : UTF-8 Plain Text
Language                                 : Spanish
Default                                  : No
Forced                                   : No

Menu
00:00:00.000                             : :1. The Necromongers
00:02:39.325                             : :2. Hard Bounty
00:07:05.508                             : :3. Back to Civilization
00:11:25.643                             : :4. A Fighting Chance
00:15:31.805                             : :5. A True Furyan
00:20:58.757                             : :6. Attack of the Necromongers
00:27:11.713                             : :7. Lensing & Cleansing
00:31:27.302                             : :8. The Lord Marshal's Offer
00:38:52.330                             : :9. Mind Regression
00:43:32.568                             : :10. Caught
00:47:18.418                             : :11. You Can Keep What You Kill
00:53:38.340                             : :12. Welcome to Crematoria
01:01:36.818                             : :13. Jack's Dead...
01:04:29.824                             : :14. A Private War
01:08:45.579                             : :15. Feeding Time
01:11:43.173                             : :16. Two Killers
01:17:19.051                             : :17. Good News & Bad News
01:22:50.006                             : :18. Running the Surface
01:29:05.131                             : :19. The Big Heat
01:32:42.473                             : :20. The Better Killer
01:41:13.650                             : :21. This Is Your Chance
01:44:28.220                             : :22. What Are the Odds?
01:48:15.197                             : :23. The Enemy Within
01:53:18.583                             : :24. Convert or Fall
01:57:02.682                             : :25. The Soul of a Furyan
02:00:00.693                             : :26. Kill the Beast
02:03:05.753                             : :27. At the Feet of an Outlaw
02:04:08.065                             : :28. End Titles








Enlaces de Mega y Google Drive solo disponibles para Miembros VIP

Compra tu Membresía VIP y apoya a Club-HD!

ATENCIÓN! Tenemos TODO el material de Club-HD disponible por Mega y Google Drive, enlaces 100% activos y online hasta la fecha

Llévate tus cuentas Mega PRO III gratis con tu membresía VIP!
Todos los posts vivos con links de Mega y Google Drive.
Todo el material de Club-HD desbloqueado y sin publicidad.

Click Aquí para más información.


Para ver este contenido oculto, debes dar click en una de las siguientes reacciones : Like Like, Love Love, Haha Haha, Wow Wow, Sad Sad, Angry Angry
 
Última edición por un moderador:

Nosferatu

Well-known member
Súper Moderador
Registro
31 Ago 2012
Mensajes
2.274
Edad
45
Ubicación
Welcome to Hell!!
Pl4yb0y Pl4yb0y Pl4yb0y Pl4yb0y Pl4yb0y Pl4yb0y Pl4yb0y Pl4yb0y Pl4yb0y Pl4yb0y
Excelente como siempre, que gran aporte una muy buena película y en esta gran calidad 1080p Director's cut, que mas se puede pedir?.:aplausos::aplausos::aplausos:

Muchas Gracias Monstruo R22!!:aplausos::aplausos::LXR::LXR:yess
 

HemoAr

Dohko de Libra
Administrador
Uploader
Miembro VIP
Registro
9 Mar 2013
Mensajes
10.597
Ubicación
Rozan
1080 Pnsand0 Pnsand0 Esperando y este en 720p. Gracias Revolver como siempre. Por dejarnos peliculas para descargar y ver este finde. :dplgar: bye
 

sharklui

Well-known member
Miembro VIP
Registro
28 Ago 2012
Mensajes
1.026
Ubicación
The Matrix
Y aqui estoy, por supuesto agradeciendo a nuestro gran Revol por su esfuerzo diario por esta comunidad y listo para guardar este gran aporte :aplausos:
 

Usuarios Que Están Viendo Este Tema (Total: 1, Miembros: 0, Invitados: 1)

Quién Leyó Este Tema (Total Miembros: 4)

Arriba